Bride of Chucky 1998 x264 720p Esub BluRay Dual Audio English Hindi THE GOPI SAHI

Bride of Chucky (1998)

R 10/16/1998 (US) Horror 1h 29m

Chucky Gets Lucky.

Overview

Chucky hooks up with another murderous doll, the bridal gown-clad Tiffany, for a Route 66 murder spree with their unwitting hosts.

Directed byRonny Yu
Produced by
Written byDon Mancini
Based onCharacters
by Don Mancini
Starring
Music byGraeme Revell
CinematographyPeter Pau
Edited by
  • Randy Bricker
  • David Wu
Production
company
David Kirschner Productions[1]
Distributed byUniversal Pictures[1]
Release date
  • October 16, 1998
Running time
89 minutes[2]
CountryUnited States
LanguageEnglish
Budget$25 million[2]
Box office$50.7 million[2]

Bride of Chucky 1998 x264 720p Esub BluRay Dual Audio English Hindi THE GOPI SAHI

Format                         : Matroska

Format version                 : Version 4

File size                      : 702 MiB

Duration                       : 1 h 28 min

Overall bit rate               : 1 105 kb/s

Movie name                     : Bride of Chucky 1998 GOPI SAHI

Encoded date                   : UTC 2021-06-16 12:49:34


Video

ID                             : 1

Format                         : AVC

Format/Info                    : Advanced Video Codec

Format profile                 : [email protected]

Format settings                : CABAC / 5 Ref Frames

Format settings, CABAC         : Yes

Format settings, Reference fra : 5 frames

Codec ID                       : V_MPEG4/ISO/AVC

Duration                       : 1 h 28 min

Bit rate                       : 899 kb/s

Width                          : 1 280 pixels

Height                         : 694 pixels

Display aspect ratio           : 1.85:1

Frame rate mode                : Constant

Frame rate                     : 23.976 (24000/1001) FPS

Color space                    : YUV

Chroma subsampling             : 4:2:0

Bit depth                      : 8 bits

Scan type                      : Progressive

Bits/(Pixel*Frame)             : 0.042

Stream size                    : 571 MiB (81%)

Title                          : GOPI SAHI

Writing library                : x264 

Language                       : English

Default                        : Yes

Forced                         : No

Color range                    : Limited

Color primaries                : BT.709

Transfer characteristics       : BT.709

Matrix coefficients            : BT.709


Audio #1

ID                             : 2

Format                         : AAC LC

Format/Info                    : Advanced Audio Codec Low Complexity

Codec ID                       : A_AAC-2

Duration                       : 1 h 28 min

Bit rate                       : 96.0 kb/s

Channel(s)                     : 2 channels

Channel layout                 : L R

Sampling rate                  : 48.0 kHz

Frame rate                     : 46.875 FPS (1024 SPF)

Compression mode               : Lossy

Delay relative to video        : -21 ms

Stream size                    : 61.2 MiB (9%)

Title                          : GOPI SAHI

Language                       : Hindi

Default                        : Yes

Forced                         : No


Audio #2

ID                             : 3

Format                         : AAC LC

Format/Info                    : Advanced Audio Codec Low Complexity

Codec ID                       : A_AAC-2

Duration                       : 1 h 28 min

Bit rate                       : 96.0 kb/s

Channel(s)                     : 2 channels

Channel layout                 : L R

Sampling rate                  : 48.0 kHz

Frame rate                     : 46.875 FPS (1024 SPF)

Compression mode               : Lossy

Delay relative to video        : -21 ms

Stream size                    : 61.2 MiB (9%)

Title                          : GOPI SAHI

Language                       : English

Default                        : No

Forced                         : No


Text

ID                             : 4

Format                         : PGS

Muxing mode                    : zlib

Codec ID                       : S_HDMV/PGS

Codec ID/Info                  : Picture based subtitle format used on BDs/HD-DVDs

Duration                       : 1 h 28 min

Bit rate                       : 35.0 kb/s

Count of elements              : 2418

Stream size                    : 22.0 MiB (3%)

Title                          : GOPI SAHI

Language                       : English

Default                        : Yes

Forced                         : Yes


Menu

00:00:00.000                   : :Hello, Dolly!

00:03:57.237                   : :Main Titles

00:06:32.934                   : :Jade's Date

00:09:28.318                   : :The Little Death

00:18:55.134                   : :Prisoners Of Love

00:26:57.658                   : :Chucky's Bride

00:36:17.550                   : :A Trip To Jersey

00:42:58.701                   : :Improvising

00:54:54.041                   : :A Needlenose Job

01:04:24.319                   : :Fugitives

01:14:20.623                   : :Full Of Surprises

01:23:26.418                   : :Chucky's In Love





MAGNET


TORRENT


TORRENT 2 480P AND 720P CHOOSE WHICH ONE DWONLOAD


GDRIVE FILE COPY


DWONLOAD AUTO START IN 20 SEC 


DOWNLOAD AND ONLINE TERABOX LINK = PASSWORD = aqwd


DWONLOAD AUTO START IN 20 SEC ZIP FILE


MEDIAFIRE


RU


DWNLOAD AND ONLINE


ONLINE 720P


Post a Comment

0 Comments