Chaos Walking 2021 x264 720p Esub BluRay Dual Audio English Hindi THE GOPI SAHI

Chaos Walking (2021)

PG-13 03/05/2021 (US) Science FictionActionAdventureThriller 1h 49m 

No one escapes the noise.

Overview

Two unlikely companions embark on a perilous adventure through the badlands of an unexplored planet as they try to escape a dangerous and disorienting reality, where all inner thoughts are seen and heard by everyone.

Directed byDoug Liman
Produced by
Screenplay by
Based onThe Knife of Never Letting Go
by Patrick Ness
Starring
Music by
CinematographyBen Seresin
Edited byDoc Crotzer
Production
companies
Distributed byLionsgate
Release date
  • February 24, 2021 (South Korea)
  • March 5, 2021 (United States)
Running time
109 minutes
CountryUnited States
LanguageEnglish
Budget$100 million[2]
Box office$21.9 million[3][1]



Chaos Walking 2021 x264 720p Esub BluRay Dual Audio English Hindi THE GOPI SAHI

Format                         : Matroska
Format version                 : Version 4
File size                      : 853 MiB
Duration                       : 1 h 48 min
Overall bit rate               : 1 094 kb/s
Movie name                     : Chaos Walking 2021 GOPI SAHI
Encoded date                   : UTC 2021-06-16 03:03:15

Video
ID                             : 1
Format                         : AVC
Format/Info                    : Advanced Video Codec
Format profile                 : [email protected]
Format settings                : CABAC / 5 Ref Frames
Format settings, CABAC         : Yes
Format settings, Reference fra : 5 frames
Codec ID                       : V_MPEG4/ISO/AVC
Duration                       : 1 h 48 min
Bit rate                       : 899 kb/s
Width                          : 1 280 pixels
Height                         : 534 pixels
Display aspect ratio           : 2.40:1
Frame rate mode                : Constant
Frame rate                     : 23.976 (24000/1001) FPS
Color space                    : YUV
Chroma subsampling             : 4:2:0
Bit depth                      : 8 bits
Scan type                      : Progressive
Bits/(Pixel*Frame)             : 0.055
Stream size                    : 700 MiB (82%)
Title                          : GOPI SAHI
Writing library                : x264 core 157 r2935 545de2f

Audio #1
ID                             : 2
Format                         : AAC LC
Format/Info                    : Advanced Audio Codec Low Complexity
Codec ID                       : A_AAC-2
Duration                       : 1 h 48 min
Bit rate                       : 96.0 kb/s
Channel(s)                     : 2 channels
Channel layout                 : L R
Sampling rate                  : 48.0 kHz
Frame rate                     : 46.875 FPS (1024 SPF)
Compression mode               : Lossy
Delay relative to video        : -21 ms
Stream size                    : 75.0 MiB (9%)
Title                          : GOPI SAHI
Language                       : Hindi
Default                        : Yes
Forced                         : No

Audio #2
ID                             : 3
Format                         : AAC LC
Format/Info                    : Advanced Audio Codec Low Complexity
Codec ID                       : A_AAC-2
Duration                       : 1 h 48 min
Bit rate                       : 96.0 kb/s
Channel(s)                     : 2 channels
Channel layout                 : L R
Sampling rate                  : 48.0 kHz
Frame rate                     : 46.875 FPS (1024 SPF)
Compression mode               : Lossy
Delay relative to video        : -21 ms
Stream size                    : 75.2 MiB (9%)
Title                          : GOPI SAHI
Language                       : English
Default                        : No
Forced                         : No

Text
ID                             : 4
Format                         : UTF-8
Codec ID                       : S_TEXT/UTF8
Codec ID/Info                  : UTF-8 Plain Text
Duration                       : 1 h 37 min
Bit rate                       : 53 b/s
Count of elements              : 1454
Stream size                    : 38.2 KiB (0%)
Title                          : GOPI SAHI
Language                       : English
Default                        : Yes
Forced                         : No

Menu
00:00:00.000                   : :Chapter 1
00:05:16.858                   : :Chapter 2
00:13:20.550                   : :Chapter 3
00:20:18.634                   : :Chapter 4
00:27:39.867                   : :Chapter 5
00:35:54.110                   : :Chapter 6
00:39:41.254                   : :Chapter 7
00:45:45.409                   : :Chapter 8
00:51:22.204                   : :Chapter 9
00:56:34.600                   : :Chapter 10
01:01:40.363                   : :Chapter 11
01:07:13.446                   : :Chapter 12
01:15:41.996                   : :Chapter 13
01:22:30.821                   : :Chapter 14
01:30:43.939                   : :Chapter 15
01:36:45.800                   : :Chapter 16

 




MAGNET

TORRENT

TORRENT 2 480P AND 720P CHOOSE WHICH ONE DWONLOAD

GDRIVE FILE COPY

DWONLOAD AUTO START IN 20 SEC

DOWNLOAD AND ONLINE TERABOX LINK = PASSWORD = u6bn

DWONLOAD AUTO START IN 20 SEC ZIP FILE

MEDIAFIRE

RU

DWNLOAD AND ONLINE

ONLINE 720P

 

Post a Comment

0 Comments