Child's Play 2 1990 x264 720p Esub BluRay Dual Audio English Hindi THE GOPI SAHI

Child's Play 2 (1990)

R 11/09/1990 (US) Horror 1h 24m

Sorry Jack...Chucky's back!

Overview

When Andy's mother is admitted to a psychiatric hospital, the young boy is placed in foster care, and Chucky, determined to claim Andy's soul, is not far behind.


Directed byJohn Lafia
Produced byDavid Kirschner
Written byDon Mancini
Based onCharacters
by Don Mancini
Starring
Music byGraeme Revell
CinematographyStefan Czapsky
Edited byEdward Warschilka
Production
company
Living Doll Productions[1]
Distributed byUniversal Pictures[1]
Release date
  • November 9, 1990
Running time
84 minutes
CountryUnited States
LanguageEnglish
Budget$13 million[2]
Box office$35.8 million[2][3]


Child's Play 2 1990 x264 720p Esub BluRay Dual Audio English Hindi THE GOPI SAHI

Format                         : Matroska

Format version                 : Version 4

File size                      : 661 MiB

Duration                       : 1 h 23 min

Overall bit rate               : 1 102 kb/s

Movie name                     : Child's Play 2 1990 GOPI SAHI

Encoded date                   : UTC 2021-06-16 12:50:34


Video

ID                             : 1

Format                         : AVC

Format/Info                    : Advanced Video Codec

Format profile                 : [email protected]

Format settings                : CABAC / 5 Ref Frames

Format settings, CABAC         : Yes

Format settings, Reference fra : 5 frames

Codec ID                       : V_MPEG4/ISO/AVC

Duration                       : 1 h 23 min

Bit rate                       : 899 kb/s

Width                          : 1 280 pixels

Height                         : 694 pixels

Display aspect ratio           : 1.85:1

Frame rate mode                : Constant

Frame rate                     : 23.976 (24000/1001) FPS

Color space                    : YUV

Chroma subsampling             : 4:2:0

Bit depth                      : 8 bits

Scan type                      : Progressive

Bits/(Pixel*Frame)             : 0.042

Stream size                    : 540 MiB (82%)

Title                          : GOPI SAHI

Writing library                : x264 core 157 r2935 545de2f

Language                       : English

Default                        : Yes

Forced                         : No

Color range                    : Limited

Color primaries                : BT.709

Transfer characteristics       : BT.709

Matrix coefficients            : BT.709


Audio #1

ID                             : 2

Format                         : AAC LC

Format/Info                    : Advanced Audio Codec Low Complexity

Codec ID                       : A_AAC-2

Duration                       : 1 h 23 min

Bit rate                       : 96.0 kb/s

Channel(s)                     : 2 channels

Channel layout                 : L R

Sampling rate                  : 48.0 kHz

Frame rate                     : 46.875 FPS (1024 SPF)

Compression mode               : Lossy

Delay relative to video        : -21 ms

Stream size                    : 57.7 MiB (9%)

Title                          : GOPI SAHI

Language                       : Hindi

Default                        : Yes

Forced                         : No


Audio #2

ID                             : 3

Format                         : AAC LC

Format/Info                    : Advanced Audio Codec Low Complexity

Codec ID                       : A_AAC-2

Duration                       : 1 h 23 min

Bit rate                       : 96.0 kb/s

Channel(s)                     : 2 channels

Channel layout                 : L R

Sampling rate                  : 48.0 kHz

Frame rate                     : 46.875 FPS (1024 SPF)

Compression mode               : Lossy

Delay relative to video        : -21 ms

Stream size                    : 57.8 MiB (9%)

Title                          : GOPI SAHI

Language                       : English

Default                        : No

Forced                         : No


Text

ID                             : 4

Format                         : PGS

Muxing mode                    : zlib

Codec ID                       : S_HDMV/PGS

Codec ID/Info                  : Picture based subtitle format used on BDs/HD-DVDs

Duration                       : 1 h 18 min

Bit rate                       : 26.5 kb/s

Count of elements              : 1605

Stream size                    : 14.8 MiB (2%)

Title                          : GOPI SAHI

Language                       : English

Default                        : Yes

Forced                         : Yes


Menu

00:00:00.000                   : :Main Titles

00:03:49.771                   : :Good News?

00:04:58.965                   : :A Rebuilt Chucky

00:06:20.088                   : :Andy's Therapy

00:09:36.159                   : :The Foster Family

00:14:59.399                   : :Rough Handling

00:20:09.625                   : :A Stormy Night

00:26:00.809                   : :"Tommy" And Andy

00:29:46.326                   : :Friends To The End

00:34:05.168                   : :Miss Kettlewell

00:42:35.762                   : :In The Basement

00:48:27.780                   : :Andy's Rejection

00:50:35.783                   : :Under The Swing

00:59:53.256                   : :Fire Drill

01:04:52.222                   : :At The Factory

01:15:04.959                   : :Duck!

01:16:58.114                   : :Kyle!

01:20:19.982                   : :End Titles






MAGNET


TORRENT


TORRENT 2 480P AND 720P CHOOSE WHICH ONE DWONLOAD


GDRIVE FILE COPY


DWONLOAD AUTO START IN 20 SEC 


DOWNLOAD AND ONLINE TERABOX LINK = PASSWORD = dn9h


DWONLOAD AUTO START IN 20 SEC ZIP FILE


MEDIAFIRE


RU


DWNLOAD AND ONLINE


ONLINE 720P

 

 

Post a Comment

0 Comments