Curse of Chucky 2013 Unrated x264 720p Esub BluRay Dual Audio English Hindi THE GOPI SAHI

Curse of Chucky (2013)

R 10/04/2013 (US) HorrorThriller 1h 37m

Fear has a new home

Overview

After the passing of her mother, a young woman in a wheelchair since birth, is forced to deal with her sister, brother-in-law, niece and their nanny as they say their goodbyes to mother. When people start turning up dead, Nica discovers the culprit might be a strange doll she received a few days earlier. 

Directed byDon Mancini
Produced byDavid Kirschner
Written byDon Mancini
Based onCharacters
by Don Mancini
Starring
Music byJoseph LoDuca
CinematographyMichael Marshall
Edited byJames Coblentz
Production
company
Distributed byUniversal Studios Home Entertainment
Release date
  • September 24, 2013
(VOD)
  • October 8, 2013
(DVD/Blu-ray)
Running time
96 minutes
CountryUnited States
LanguageEnglish
Budget$2.8 million[1]
Box office$3.8 million


Curse of Chucky 2013 Unrated x264 720p Esub BluRay Dual Audio English Hindi THE GOPI SAHI


Format                         : Matroska

Format version                 : Version 4

File size                      : 898 MiB

Duration                       : 1 h 36 min

Overall bit rate               : 1 299 kb/s

Movie name                     : Curse of Chucky 2013 Unrated GOPI SAHI

Encoded date                   : UTC 2021-06-17 01:16:27


Video

ID                             : 1

Format                         : AVC

Format/Info                    : Advanced Video Codec

Format profile                 : [email protected]

Format settings                : CABAC / 5 Ref Frames

Format settings, CABAC         : Yes

Format settings, Reference fra : 5 frames

Codec ID                       : V_MPEG4/ISO/AVC

Duration                       : 1 h 36 min

Bit rate                       : 899 kb/s

Width                          : 1 280 pixels

Height                         : 720 pixels

Display aspect ratio           : 16:9

Frame rate mode                : Constant

Frame rate                     : 23.976 (24000/1001) FPS

Color space                    : YUV

Chroma subsampling             : 4:2:0

Bit depth                      : 8 bits

Scan type                      : Progressive

Bits/(Pixel*Frame)             : 0.041

Stream size                    : 621 MiB (69%)

Title                          : GOPI SAHI

Writing library                : x264 core 157 r2935 545de2f

Matrix coefficients            : BT.709


Audio #1

ID                             : 2

Format                         : AAC LC

Format/Info                    : Advanced Audio Codec Low Complexity

Codec ID                       : A_AAC-2

Duration                       : 1 h 36 min

Bit rate                       : 192 kb/s

Channel(s)                     : 6 channels

Channel layout                 : C L R Ls Rs LFE

Sampling rate                  : 48.0 kHz

Frame rate                     : 46.875 FPS (1024 SPF)

Compression mode               : Lossy

Delay relative to video        : -21 ms

Stream size                    : 133 MiB (15%)

Title                          : GOPI SAHI

Language                       : Hindi

Default                        : Yes

Forced                         : No


Audio #2

ID                             : 3

Format                         : AAC LC

Format/Info                    : Advanced Audio Codec Low Complexity

Codec ID                       : A_AAC-2

Duration                       : 1 h 36 min

Bit rate                       : 192 kb/s

Channel(s)                     : 6 channels

Channel layout                 : C L R Ls Rs LFE

Sampling rate                  : 48.0 kHz

Frame rate                     : 46.875 FPS (1024 SPF)

Compression mode               : Lossy

Delay relative to video        : -21 ms

Stream size                    : 133 MiB (15%)

Title                          : GOPI SAHI

Language                       : English

Default                        : No

Forced                         : No


Text #1

ID                             : 4

Format                         : PGS

Muxing mode                    : zlib

Codec ID                       : S_HDMV/PGS

Codec ID/Info                  : Picture based subtitle format used on BDs/HD-DVDs

Duration                       : 1 h 35 min

Bit rate                       : 15.4 kb/s

Count of elements              : 1422

Stream size                    : 10.5 MiB (1%)

Title                          : GOPI SAHI

Language                       : Hindi

Default                        : Yes

Forced                         : Yes


Text #2

ID                             : 5

Format                         : PGS

Muxing mode                    : zlib

Codec ID                       : S_HDMV/PGS

Codec ID/Info                  : Picture based subtitle format used on BDs/HD-DVDs

Duration                       : 1 h 35 min

Bit rate                       : 24.2 kb/s

Count of elements              : 1890

Stream size                    : 16.5 MiB (2%)

Title                          : GOPI SAHI

Language                       : English

Default                        : No

Forced                         : No


Menu

00:00:00.000                   : :Chapter 1

00:04:45.744                   : :Chapter 2

00:08:48.528                   : :Chapter 3

00:15:30.680                   : :Chapter 4

00:20:24.306                   : :Chapter 5

00:27:34.653                   : :Chapter 6

00:32:42.502                   : :Chapter 7

00:37:47.140                   : :Chapter 8

00:43:51.796                   : :Chapter 9

00:46:54.186                   : :Chapter 10

00:51:29.336                   : :Chapter 11

00:56:46.904                   : :Chapter 12

01:01:29.686                   : :Chapter 13

01:05:34.347                   : :Chapter 14

01:09:09.270                   : :Chapter 15

01:13:41.250                   : :Chapter 16

01:20:23.235                   : :Chapter 17

01:24:53.505                   : :Chapter 18

01:28:31.765                   : :Chapter 19

01:31:47.502                   : :Chapter 20





MAGNET


TORRENT


TORRENT 2 480P AND 720P CHOOSE WHICH ONE DWONLOAD


GDRIVE FILE COPY


DWONLOAD AUTO START IN 20 SEC 


DOWNLOAD AND ONLINE TERABOX LINK = PASSWORD = ve57


DWONLOAD AUTO START IN 20 SEC ZIP FILE


MEDIAFIRE


RU


DWNLOAD AND ONLINE


ONLINE 720P


Post a Comment

0 Comments