Four Against The Bank 2016 x264 720p Esub BluRay Dual Audio Hindi THE GOPI SAHI

Four Against the Bank (2016)

12 12/25/2016 (DE) ComedyCrime 1h 36m 
 

Overview

Four men, betrayed by the bank, unite to take revenge.  

 

Directed byWolfgang Petersen
Produced byChristopher Doll
Lothar Hellinger
Barbara Huber
Mark Nolting
Wolfgang Petersen
Written byTripper Clancy
Based onThe Nixon Recession Caper by Ralph Maloney
StarringTil Schweiger
Matthias Schweighöfer
Michael Herbig
Jan Josef Liefers
Music byEnis Rotthoff
CinematographyDaniel Gottschalk
Edited byPeter R. Adam
Production
companies
Hellinger / Doll Filmproduktion
Warner Bros.
Distributed byWarner Bros. Pictures
Release date
  • 25 December 2016 (Germany)
Running time
96 minutes
CountryGermany
LanguageGerman
Box office$9,193,243


 Four Against The Bank 2016 x264 720p Esub BluRay Dual Audio Hindi THE GOPI SAHI

Format                         : Matroska
Format version                 : Version 4
File size                      : 752 MiB
Duration                       : 1 h 35 min
Overall bit rate               : 1 095 kb/s
Movie name                     : Four Against the Bank 2016 GOPISAHI
Encoded date                   : UTC 2020-01-18 11:13:12

Video
ID                             : 1
Format                         : AVC
Format/Info                    : Advanced Video Codec
Format profile                 : [email protected]
Format settings                : CABAC / 12 Ref Frames
Format settings, CABAC         : Yes
Format settings, Reference fra : 12 frames
Codec ID                       : V_MPEG4/ISO/AVC
Duration                       : 1 h 35 min
Bit rate                       : 899 kb/s
Width                          : 1 280 pixels
Height                         : 544 pixels
Display aspect ratio           : 2.35:1
Frame rate mode                : Constant
Frame rate                     : 23.976 (23976/1000) FPS
Color space                    : YUV
Chroma subsampling             : 4:2:0
Bit depth                      : 8 bits
Scan type                      : Progressive
Bits/(Pixel*Frame)             : 0.054
Stream size                    : 617 MiB (82%)
Title                          : GOPISAHI
Writing library                : x264 core 157 r2935 545de2f

Audio #1
ID                             : 2
Format                         : AAC LC
Format/Info                    : Advanced Audio Codec Low Complexity
Codec ID                       : A_AAC-2
Duration                       : 1 h 35 min
Bit rate                       : 96.0 kb/s
Channel(s)                     : 2 channels
Channel layout                 : L R
Sampling rate                  : 48.0 kHz
Frame rate                     : 46.875 FPS (1024 SPF)
Compression mode               : Lossy
Delay relative to video        : -21 ms
Stream size                    : 66.3 MiB (9%)
Title                          : GOPISAHI
Language                       : Hindi
Default                        : Yes
Forced                         : No

Audio #2
ID                             : 3
Format                         : AAC LC
Format/Info                    : Advanced Audio Codec Low Complexity
Codec ID                       : A_AAC-2
Duration                       : 1 h 35 min
Bit rate                       : 96.0 kb/s
Channel(s)                     : 2 channels
Channel layout                 : L R
Sampling rate                  : 48.0 kHz
Frame rate                     : 46.875 FPS (1024 SPF)
Compression mode               : Lossy
Stream size                    : 66.3 MiB (9%)
Title                          : GOPISAHI
Language                       : German
Default                        : No
Forced                         : No

Text
ID                             : 4
Format                         : UTF-8
Codec ID                       : S_TEXT/UTF8
Codec ID/Info                  : UTF-8 Plain Text
Duration                       : 1 h 28 min
Bit rate                       : 65 b/s
Count of elements              : 1113
Stream size                    : 42.3 KiB (0%)
Title                          : GOPISAHI
Language                       : English
Default                        : Yes
Forced                         : No




MAGNET

TORRENT

TORRENT 2 480P AND 720P CHOOSE WHICH ONE DWONLOAD


GDRIVE FILE COPY

DWONLOAD AUTO START IN 20 SEC

DOWNLOAD AND ONLINE TERABOX LINK = PASSWORD = 5xrt

DWONLOAD AUTO START IN 20 SEC ZIP FILE


MEDIAFIRE

RU

DWNLOAD AND ONLINE

ONLINE 720P


 

Post a Comment

0 Comments