Godzilla 1998 4K Remastered x264 720p Esub BluRay Dual Audio English Hindi THE GOPI SAHI

Godzilla (1998)

PG-13 05/20/1998 (US) Science FictionActionThriller 2h 19m

Size does matter.

Overview

French nuclear tests irradiate an iguana into a giant monster that viciously attacks freighter ships in the Pacific Ocean. A team of experts, including Niko Tatopoulos, conclude that the oversized reptile is the culprit. Before long, the giant lizard is loose in Manhattan as the US military races to destroy the monster before it reproduces and it's spawn takes over the world.

Directed byRoland Emmerich
Produced byDean Devlin
Screenplay by
  • Dean Devlin
  • Roland Emmerich
Story by
Based onGodzilla
by Toho
Starring
Music byDavid Arnold
CinematographyUeli Steiger
Edited by
  • Peter Amundson
  • David J. Siegel
Production
companies
Distributed by
Release date
  • May 20, 1998 (United States)
Running time
139 minutes[3]
CountryUnited States
LanguageEnglish
Budget$130–150 million[4][5]
Box office$379 million[4]



Godzilla 1998 4K Remastered x264 720p Esub BluRay Dual Audio English Hindi THE GOPI SAHI


Format                         : Matroska

Format version                 : Version 4

File size                      : 1.07 GiB

Duration                       : 2 h 18 min

Overall bit rate               : 1 100 kb/s

Movie name                     : Godzilla 1998 4K Remastered GOPI SAHI

Encoded date                   : UTC 2021-01-29 11:14:05


Video

ID                             : 1

Format                         : AVC

Format/Info                    : Advanced Video Codec

Format profile                 : [email protected]

Format settings                : CABAC / 5 Ref Frames

Format settings, CABAC         : Yes

Format settings, Reference fra : 5 frames

Codec ID                       : V_MPEG4/ISO/AVC

Duration                       : 2 h 18 min

Bit rate                       : 899 kb/s

Width                          : 1 280 pixels

Height                         : 536 pixels

Display aspect ratio           : 2.40:1

Frame rate mode                : Constant

Frame rate                     : 23.976 (24000/1001) FPS

Color space                    : YUV

Chroma subsampling             : 4:2:0

Bit depth                      : 8 bits

Scan type                      : Progressive

Bits/(Pixel*Frame)             : 0.055

Stream size                    : 892 MiB (82%)

Title                          : GOPI SAHI

Writing library                : x264 core 157 r2935 545de2f


Audio #1

ID                             : 2

Format                         : AAC LC

Format/Info                    : Advanced Audio Codec Low Complexity

Codec ID                       : A_AAC-2

Duration                       : 2 h 18 min

Bit rate                       : 96.0 kb/s

Channel(s)                     : 2 channels

Channel layout                 : L R

Sampling rate                  : 48.0 kHz

Frame rate                     : 46.875 FPS (1024 SPF)

Compression mode               : Lossy

Delay relative to video        : 17 ms

Stream size                    : 95.6 MiB (9%)

Title                          : GOPI SAHI

Language                       : Hindi

Default                        : Yes

Forced                         : No


Audio #2

ID                             : 3

Format                         : AAC LC

Format/Info                    : Advanced Audio Codec Low Complexity

Codec ID                       : A_AAC-2

Duration                       : 2 h 18 min

Bit rate                       : 96.0 kb/s

Channel(s)                     : 2 channels

Channel layout                 : L R

Sampling rate                  : 48.0 kHz

Frame rate                     : 46.875 FPS (1024 SPF)

Compression mode               : Lossy

Delay relative to video        : -21 ms

Stream size                    : 95.7 MiB (9%)

Title                          : GOPI SAHI

Language                       : English

Default                        : No

Forced                         : No


Text #1

ID                             : 4

Format                         : PGS

Muxing mode                    : zlib

Codec ID                       : S_HDMV/PGS

Codec ID/Info                  : Picture based subtitle format used on BDs/HD-DVDs

Duration                       : 2 h 8 min

Bit rate                       : 12.4 kb/s

Count of elements              : 1696

Stream size                    : 11.4 MiB (1%)

Title                          : GOPI SAHI

Language                       : Hindi

Default                        : Yes

Forced                         : Yes


Text #2

ID                             : 5

Format                         : PGS

Muxing mode                    : zlib

Codec ID                       : S_HDMV/PGS

Codec ID/Info                  : Picture based subtitle format used on BDs/HD-DVDs

Duration                       : 1 h 23 min

Bit rate                       : 448 b/s

Count of elements              : 36

Stream size                    : 273 KiB (0%)

Title                          : GOPI SAHI

Language                       : English

Default                        : No

Forced                         : No


Menu

00:00:00.000                   : :00:00:00.000

00:07:48.593                   : :00:07:48.426

00:17:25.586                   : :00:17:25.461

00:25:28.235                   : :00:25:28.235

00:36:53.837                   : :00:36:53.837

00:41:48.214                   : :00:41:48.214

00:48:19.730                   : :00:48:19.730

01:01:35.942                   : :01:01:35.942

01:11:06.095                   : :01:11:06.095

01:21:38.685                   : :01:21:38.685

01:30:26.212                   : :01:30:26.212

01:39:14.323                   : :01:39:14.157

01:50:24.243                   : :01:50:24.159

01:52:28.659                   : :01:52:28.659

02:00:36.855                   : :02:00:36.771

02:05:56.883                   : :02:05:56.883




MAGNET


TORRENT


TORRENT 2 480P AND 720P CHOOSE WHICH ONE DWONLOAD


GDRIVE FILE COPY


DWONLOAD AUTO START IN 20 SEC 


DOWNLOAD AND ONLINE TERABOX LINK = PASSWORD = v4md


GOZILLA 4 MOVIE  5.60 GB DWONLOAD AUTO START IN 20 SEC ZIP FILE


784 MB HINDI 480P DWONLOAD AUTO START IN 20 SEC 


MEDIAFIRE


DWNLOAD AND ONLINE


ONLINE 720P


Post a Comment

2 Comments

  1. sir please upload wanderlust & This is 40 & Instant Family , YE movies Torrent par available ha or apki hi ha , lekin unke peers dead ha..

    ReplyDelete
    Replies
    1. ANY TORRENT NOT RE-SSED WAY ASK AGAIN AND AGAIN GOOGLE DRIVE LINK ALSO WORK , FIRST DONTE FOR SEED BOX MONTHLY CHARGE 23 USD -INDIA CURRY 1300 IF YOU NOT DONTE DO NOT ASK FOR RE SEED , FIND ANTHOR WAY TO DWONLOAD .

      Delete

No Except Any Movie Request Here,Try To Donate Money For Website Then Request, If You No Donate Way Post Request Here ,Nonprofit Services, No Ads, No Any Earning, If Download Link Not Work Post a Comment On Movie Page For Re-upload, Post a Comment On Any Movie Page If You Donate For This Website, Thanks Keep Support. Any Torrent-Magnet Not Reseed,Seed Only First 30 Days,Then Use Google Drive For Download.