Godzilla 2014 x264 720p Esub BluRay Dual Audio English Hindi THE GOPI SAHI

Godzilla (2014)

PG-13 05/16/2014 (US) ActionDramaScience Fiction 2h 3m

The world ends, Godzilla begins.

Overview

Ford Brody, a Navy bomb expert, has just reunited with his family in San Francisco when he is forced to go to Japan to help his estranged father, Joe. Soon, both men are swept up in an escalating crisis when an ancient alpha predator arises from the sea to combat malevolent adversaries that threaten the survival of humanity. The creatures leave colossal destruction in their wake, as they make their way toward their final battleground: San Francisco.

Directed byGareth Edwards
Produced by
Screenplay byMax Borenstein
Story byDavid Callaham
Based onGodzilla
by Toho
Starring
Music byAlexandre Desplat
CinematographySeamus McGarvey
Edited byBob Ducsay
Production
companies
Distributed by
Release date
Running time
123 minutes[2]
CountryUnited States[3]
LanguageEnglish
Budget$160 million[4][5]
Box office$529 million[6][7][8]


Godzilla 2014 x264 720p Esub BluRay Dual Audio English Hindi THE GOPI SAHI


Format                         : Matroska

Format version                 : Version 4

File size                      : 975 MiB

Duration                       : 2 h 3 min

Overall bit rate               : 1 107 kb/s

Movie name                     : Godzilla 2014 GOPI SAHI

Encoded date                   : UTC 2021-01-29 11:19:31


Video

ID                             : 1

Format                         : AVC

Format/Info                    : Advanced Video Codec

Format profile                 : [email protected]

Format settings                : CABAC / 5 Ref Frames

Format settings, CABAC         : Yes

Format settings, Reference fra : 5 frames

Codec ID                       : V_MPEG4/ISO/AVC

Duration                       : 2 h 3 min

Bit rate                       : 899 kb/s

Width                          : 1 280 pixels

Height                         : 534 pixels

Display aspect ratio           : 2.40:1

Frame rate mode                : Constant

Frame rate                     : 23.976 (24000/1001) FPS

Color space                    : YUV

Chroma subsampling             : 4:2:0

Bit depth                      : 8 bits

Scan type                      : Progressive

Bits/(Pixel*Frame)             : 0.055

Stream size                    : 792 MiB (81%)

Title                          : GOPI SAHI

Writing library                : x264 core 157 r2935 545de2f


Audio #1

ID                             : 2

Format                         : AAC LC

Format/Info                    : Advanced Audio Codec Low Complexity

Codec ID                       : A_AAC-2

Duration                       : 2 h 3 min

Bit rate                       : 96.0 kb/s

Channel(s)                     : 2 channels

Channel layout                 : L R

Sampling rate                  : 48.0 kHz

Frame rate                     : 46.875 FPS (1024 SPF)

Compression mode               : Lossy

Delay relative to video        : 1 s 997 ms

Stream size                    : 84.9 MiB (9%)

Title                          : GOPI SAHI

Language                       : Hindi

Default                        : Yes

Forced                         : No


Audio #2

ID                             : 3

Format                         : AAC LC

Format/Info                    : Advanced Audio Codec Low Complexity

Codec ID                       : A_AAC-2

Duration                       : 2 h 3 min

Bit rate                       : 96.0 kb/s

Channel(s)                     : 2 channels

Channel layout                 : L R

Sampling rate                  : 48.0 kHz

Frame rate                     : 46.875 FPS (1024 SPF)

Compression mode               : Lossy

Delay relative to video        : -21 ms

Stream size                    : 84.9 MiB (9%)

Title                          : GOPI SAHI

Language                       : English

Default                        : No

Forced                         : No


Text

ID                             : 4

Format                         : PGS

Muxing mode                    : zlib

Codec ID                       : S_HDMV/PGS

Codec ID/Info                  : Picture based subtitle format used on BDs/HD-DVDs

Duration                       : 2 h 1 min

Bit rate                       : 28.1 kb/s

Count of elements              : 2902

Stream size                    : 24.3 MiB (2%)

Title                          : GOPI SAHI

Language                       : English

Default                        : No

Forced                         : No


Menu

00:00:00.000                   : :Chapter 1

00:09:22.729                   : :Chapter 2

00:19:03.351                   : :Chapter 3

00:30:25.866                   : :Chapter 4

00:39:10.348                   : :Chapter 5

00:49:43.481                   : :Chapter 6

00:59:27.439                   : :Chapter 7

01:09:50.353                   : :Chapter 8

01:19:11.372                   : :Chapter 9

01:29:57.309                   : :Chapter 10

01:40:14.800                   : :Chapter 11

01:52:14.937                   : :Chapter 12

01:56:10.297                   : :Chapter 13




MAGNET


TORRENT


TORRENT 2 480P AND 720P CHOOSE WHICH ONE DWONLOAD


GDRIVE FILE COPY


DWONLOAD AUTO START IN 20 SEC 


DOWNLOAD AND ONLINE TERABOX LINK = PASSWORD = shvm


711 MB HINDI 480P DWONLOAD AUTO START IN 20 SEC


GOZILLA 4 MOVIE  5.60 GB DWONLOAD AUTO START IN 20 SEC ZIP FILE


MEDIAFIRE


DWNLOAD AND ONLINE


ONLINE 720P


Post a Comment

0 Comments