Godzilla King Of The Monsters 2019 x264 720p Esub BluRay Dual Audio English Hindi Telugu Tami THE GOPI SAHI

 

Godzilla (2014)

PG-13 05/16/2014 (US) ActionDramaScience Fiction 2h 3m

The world ends, Godzilla begins.

Overview

Ford Brody, a Navy bomb expert, has just reunited with his family in San Francisco when he is forced to go to Japan to help his estranged father, Joe. Soon, both men are swept up in an escalating crisis when an ancient alpha predator arises from the sea to combat malevolent adversaries that threaten the survival of humanity. The creatures leave colossal destruction in their wake, as they make their way toward their final battleground: San Francisco.

Directed byMichael Dougherty
Produced by
Screenplay by
  • Michael Dougherty
  • Zach Shields
Story by
Based onGodzillaKing GhidorahMothra and Rodan
by Toho
Starring
Music byBear McCreary
CinematographyLawrence Sher
Edited by
Production
companies
Distributed by
Release date
  • May 13, 2019 (Beijing)
  • May 31, 2019 (United States)
Running time
131 minutes[1]
CountryUnited States
LanguageEnglish
Budget$170–200 million[a]
Box office$386.6 million[3]


Godzilla King Of The Monsters 2019 x264 720p Esub BluRay Dual Audio English Hindi Telugu Tami THE GOPI SAHI


Format                         : Matroska

Format version                 : Version 4

File size                      : 1.55 GiB

Duration                       : 2 h 11 min

Overall bit rate               : 1 683 kb/s

Movie name                     : Godzilla King of the Monsters 2019 GOPISAHI

Encoded date                   : UTC 2019-09-02 03:23:09


Video

ID                             : 1

Format                         : AVC

Format/Info                    : Advanced Video Codec

Format profile                 : [email protected]

Format settings                : CABAC / 12 Ref Frames

Format settings, CABAC         : Yes

Format settings, Reference fra : 12 frames

Codec ID                       : V_MPEG4/ISO/AVC

Duration                       : 2 h 11 min

Bit rate                       : 899 kb/s

Width                          : 1 280 pixels

Height                         : 534 pixels

Display aspect ratio           : 2.40:1

Frame rate mode                : Constant

Frame rate                     : 23.976 (24000/1001) FPS

Color space                    : YUV

Chroma subsampling             : 4:2:0

Bit depth                      : 8 bits

Scan type                      : Progressive

Bits/(Pixel*Frame)             : 0.055

Stream size                    : 847 MiB (53%)

Title                          : GOPISAHI

Writing library                : x264 core 157 r2935 545de2f


Audio #1

ID                             : 2

Format                         : AAC LC

Format/Info                    : Advanced Audio Codec Low Complexity

Codec ID                       : A_AAC-2

Duration                       : 2 h 11 min

Bit rate                       : 192 kb/s

Channel(s)                     : 6 channels

Channel layout                 : C L R Ls Rs LFE

Sampling rate                  : 48.0 kHz

Frame rate                     : 46.875 FPS (1024 SPF)

Compression mode               : Lossy

Delay relative to video        : -21 ms

Stream size                    : 181 MiB (11%)

Title                          : GOPISAHI

Language                       : Hindi

Default                        : Yes

Forced                         : No


Audio #2

ID                             : 3

Format                         : AAC LC

Format/Info                    : Advanced Audio Codec Low Complexity

Codec ID                       : A_AAC-2

Duration                       : 2 h 11 min

Bit rate                       : 192 kb/s

Channel(s)                     : 6 channels

Channel layout                 : C L R Ls Rs LFE

Sampling rate                  : 48.0 kHz

Frame rate                     : 46.875 FPS (1024 SPF)

Compression mode               : Lossy

Delay relative to video        : -21 ms

Stream size                    : 181 MiB (11%)

Title                          : GOPISAHI

Language                       : English

Default                        : No

Forced                         : No


Audio #3

ID                             : 4

Format                         : AAC LC

Format/Info                    : Advanced Audio Codec Low Complexity

Codec ID                       : A_AAC-2

Duration                       : 2 h 11 min

Bit rate                       : 192 kb/s

Channel(s)                     : 6 channels

Channel layout                 : C L R Ls Rs LFE

Sampling rate                  : 48.0 kHz

Frame rate                     : 46.875 FPS (1024 SPF)

Compression mode               : Lossy

Delay relative to video        : -21 ms

Stream size                    : 181 MiB (11%)

Title                          : GOPISAHI

Language                       : Telugu

Default                        : No

Forced                         : No


Audio #4

ID                             : 5

Format                         : AAC LC

Format/Info                    : Advanced Audio Codec Low Complexity

Codec ID                       : A_AAC-2

Duration                       : 2 h 11 min

Bit rate                       : 192 kb/s

Channel(s)                     : 6 channels

Channel layout                 : C L R Ls Rs LFE

Sampling rate                  : 48.0 kHz

Frame rate                     : 46.875 FPS (1024 SPF)

Compression mode               : Lossy

Delay relative to video        : -21 ms

Stream size                    : 181 MiB (11%)

Title                          : GOPISAHI

Language                       : Tamil

Default                        : No

Forced                         : No


Text #1

ID                             : 6

Format                         : PGS

Muxing mode                    : zlib

Codec ID                       : S_HDMV/PGS

Codec ID/Info                  : Picture based subtitle format used on BDs/HD-DVDs

Duration                       : 2 h 11 min

Bit rate                       : 33.0 kb/s

Count of elements              : 3322

Stream size                    : 31.0 MiB (2%)

Title                          : GOPISAHI

Language                       : English

Default                        : Yes

Forced                         : Yes


Text #2

ID                             : 7

Format                         : PGS

Muxing mode                    : zlib

Codec ID                       : S_HDMV/PGS

Codec ID/Info                  : Picture based subtitle format used on BDs/HD-DVDs

Duration                       : 2 h 9 min

Bit rate                       : 1 026 b/s

Count of elements              : 106

Stream size                    : 976 KiB (0%)

Title                          : GOPISAHI

Language                       : Hindi

Default                        : No

Forced                         : No


Text #3

ID                             : 8

Format                         : PGS

Muxing mode                    : zlib

Codec ID                       : S_HDMV/PGS

Codec ID/Info                  : Picture based subtitle format used on BDs/HD-DVDs

Duration                       : 2 h 9 min

Bit rate                       : 1 162 b/s

Count of elements              : 110

Stream size                    : 1.08 MiB (0%)

Title                          : GOPISAHI

Language                       : Telugu

Default                        : No

Forced                         : No


Text #4

ID                             : 9

Format                         : PGS

Muxing mode                    : zlib

Codec ID                       : S_HDMV/PGS

Codec ID/Info                  : Picture based subtitle format used on BDs/HD-DVDs

Duration                       : 2 h 9 min

Bit rate                       : 1 318 b/s

Count of elements              : 104

Stream size                    : 1.22 MiB (0%)

Title                          : GOPISAHI

Language                       : Tamil

Default                        : No

Forced                         : No





MAGNET


TORRENT


TORRENT 2 480P AND 720P CHOOSE WHICH ONE DWONLOAD


GDRIVE FILE COPY


DWONLOAD AUTO START IN 20 SEC 


DOWNLOAD AND ONLINE TERABOX LINK = PASSWORD = dm6j


749 MB HINDI 480P DWONLOAD AUTO START IN 20 SEC


GOZILLA 4 MOVIE  5.60 GB DWONLOAD AUTO START IN 20 SEC ZIP FILE


MEDIAFIRE


DWNLOAD AND ONLINE


ONLINE 720P


Post a Comment

0 Comments