Godzilla vs. Kong 2021 x264 720p Esub BluRay Dual Audio English Hindi THE GOPI SAHI


Godzilla vs. Kong (2021)

PG-13 | | Action, Sci-Fi, Thriller | 31 March 2021 (USA)
 
 

In Theaters Now

The epic next chapter in the cinematic Monsterverse pits two of the greatest icons in motion picture history against one another - the fearsome Godzilla and the mighty Kong - with humanity caught in the balance.
EN

Director:

Adam Wingard

Writers:

Eric Pearson (screenplay by), Max Borenstein (screenplay by) | 3 more credits »
 
7.4/10
15,657
Directed byAdam Wingard
Produced by
Screenplay by
Story by
Based on
Starring
Music byTom Holkenborg
CinematographyBen Seresin
Edited byJosh Schaeffer
Production
company
Distributed by
Release date
  • March 24, 2021 (International)
  • March 31, 2021 (United States)
Running time
113 minutes[1]
CountryUnited States
LanguageEnglish
Budget$155–200 million[a]
Box office$415.4 million[2][8]

 


 
Godzilla vs. Kong 2021 x264 720p Esub BluRay Dual Audio English Hindi THE GOPI SAHI

Format                         : Matroska
Format version                 : Version 4
File size                      : 1.02 GiB
Duration                       : 1 h 53 min
Overall bit rate               : 1 297 kb/s
Movie name                     : Godzilla vs. Kong 2021 GOPI SAHI
Encoded date                   : UTC 2021-06-14 22:09:57

Video
ID                             : 1
Format                         : AVC
Format/Info                    : Advanced Video Codec
Format profile                 : [email protected]
Format settings                : CABAC / 5 Ref Frames
Format settings, CABAC         : Yes
Format settings, Reference fra : 5 frames
Codec ID                       : V_MPEG4/ISO/AVC
Duration                       : 1 h 53 min
Bit rate                       : 899 kb/s
Width                          : 1 280 pixels
Height                         : 536 pixels
Display aspect ratio           : 2.40:1
Frame rate mode                : Constant
Frame rate                     : 23.976 (24000/1001) FPS
Color space                    : YUV
Chroma subsampling             : 4:2:0
Bit depth                      : 8 bits
Scan type                      : Progressive
Bits/(Pixel*Frame)             : 0.055
Stream size                    : 727 MiB (69%)
Title                          : GOPI SAHI
Writing library                : x264 core 157 r2935 545de2f

Audio #1
ID                             : 2
Format                         : AAC LC
Format/Info                    : Advanced Audio Codec Low Complexity
Codec ID                       : A_AAC-2
Duration                       : 1 h 53 min
Bit rate                       : 192 kb/s
Channel(s)                     : 6 channels
Channel layout                 : C L R Ls Rs LFE
Sampling rate                  : 48.0 kHz
Frame rate                     : 46.875 FPS (1024 SPF)
Compression mode               : Lossy
Delay relative to video        : -21 ms
Stream size                    : 155 MiB (15%)
Title                          : GOPI SAHI
Language                       : Hindi
Default                        : Yes
Forced                         : No

Audio #2
ID                             : 3
Format                         : AAC LC
Format/Info                    : Advanced Audio Codec Low Complexity
Codec ID                       : A_AAC-2
Duration                       : 1 h 53 min
Bit rate                       : 192 kb/s
Channel(s)                     : 6 channels
Channel layout                 : C L R Ls Rs LFE
Sampling rate                  : 48.0 kHz
Frame rate                     : 46.875 FPS (1024 SPF)
Compression mode               : Lossy
Delay relative to video        : -21 ms
Stream size                    : 155 MiB (15%)
Title                          : GOPI SAHI
Language                       : English
Default                        : No
Forced                         : No

Text #1
ID                             : 4
Format                         : PGS
Muxing mode                    : zlib
Codec ID                       : S_HDMV/PGS
Codec ID/Info                  : Picture based subtitle format used on BDs/HD-DVDs
Duration                       : 1 h 52 min
Bit rate                       : 1 296 b/s
Count of elements              : 204
Stream size                    : 1.04 MiB (0%)
Title                          : GOPI SAHI
Language                       : Hindi
Default                        : Yes
Forced                         : Yes

Text #2
ID                             : 5
Format                         : PGS
Muxing mode                    : zlib
Codec ID                       : S_HDMV/PGS
Codec ID/Info                  : Picture based subtitle format used on BDs/HD-DVDs
Duration                       : 1 h 45 min
Bit rate                       : 31.2 kb/s
Count of elements              : 2707
Stream size                    : 23.7 MiB (2%)
Title                          : GOPI SAHI
Language                       : English
Default                        : No
Forced                         : No

Text #3
ID                             : 6
Format                         : PGS
Muxing mode                    : zlib
Codec ID                       : S_HDMV/PGS
Codec ID/Info                  : Picture based subtitle format used on BDs/HD-DVDs
Duration                       : 1 h 52 min
Bit rate                       : 1 961 b/s
Count of elements              : 206
Stream size                    : 1.58 MiB (0%)
Title                          : GOPI SAHI
Language                       : Tamil
Default                        : No
Forced                         : No

Text #4
ID                             : 7
Format                         : PGS
Muxing mode                    : zlib
Codec ID                       : S_HDMV/PGS
Codec ID/Info                  : Picture based subtitle format used on BDs/HD-DVDs
Duration                       : 1 h 52 min
Bit rate                       : 1 502 b/s
Count of elements              : 206
Stream size                    : 1.21 MiB (0%)
Title                          : GOPI SAHI
Language                       : Telugu
Default                        : No
Forced                         : No

Menu
00:00:00.000                   : :Chapter 1
00:09:51.591                   : :Chapter 2
00:20:07.498                   : :Chapter 3
00:29:02.366                   : :Chapter 4
00:38:39.734                   : :Chapter 5
00:49:15.995                   : :Chapter 6
00:57:17.017                   : :Chapter 7
01:09:07.977                   : :Chapter 8
01:18:33.876                   : :Chapter 9
01:30:06.109                   : :Chapter 10
01:41:58.946                   : :Chapter 11







                             

Post a Comment

1 Comments

No Except Any Movie Request Here,Try To Donate Money For Website Then Request, If You No Donate Way Post Request Here ,Nonprofit Services, No Ads, No Any Earning, If Download Link Not Work Post a Comment On Movie Page For Re-upload, Post a Comment On Any Movie Page If You Donate For This Website, Thanks Keep Support. Any Torrent-Magnet Not Reseed,Seed Only First 30 Days,Then Use Google Drive For Download.