Grown Ups 2 2013 x264 720p Esub BluRay Dual Audio English Hindi THE GOPI SAHI

Grown Ups 2 (2013)

PG-13 07/12/2013 (US) Comedy 1h 41m

Just because they're a little older doesn't mean they've grown up.

Overview

Lenny has relocated his family back to the small town where he and his friends grew up. This time around, the grown ups are the ones learning lessons from their kids on a day notoriously full of surprises—the last day of school.


Directed byDennis Dugan
Produced by
Written by
Starring
Music byRupert Gregson-Williams
CinematographyTheo van de Sande
Edited byTom Costain
Production
companies
Distributed bySony Pictures Releasing[2]
Release date
  • July 12, 2013
Running time
101 minutes[3]
CountryUnited States
LanguageEnglish
Budget$80 million[4]
Box office$247 million[5]

Grown Ups 2 2013 x264 720p Esub BluRay Dual Audio English Hindi THE GOPI SAHI


Format                         : Matroska

Format version                 : Version 4

File size                      : 1 011 MiB

Duration                       : 1 h 40 min

Overall bit rate               : 1 400 kb/s

Movie name                     : Grown Ups 2 2013 GOPI SAHI

Encoded date                   : UTC 2021-06-14 14:18:58


Video

ID                             : 1

Format                         : AVC

Format/Info                    : Advanced Video Codec

Format profile                 : [email protected]

Format settings                : CABAC / 5 Ref Frames

Format settings, CABAC         : Yes

Format settings, Reference fra : 5 frames

Codec ID                       : V_MPEG4/ISO/AVC

Duration                       : 1 h 40 min

Bit rate                       : 1 099 kb/s

Width                          : 1 280 pixels

Height                         : 688 pixels

Display aspect ratio           : 1.85:1

Frame rate mode                : Constant

Frame rate                     : 23.976 (24000/1001) FPS

Color space                    : YUV

Chroma subsampling             : 4:2:0

Bit depth                      : 8 bits

Scan type                      : Progressive

Bits/(Pixel*Frame)             : 0.052

Stream size                    : 793 MiB (78%)

Title                          : GOPI SAHI

Writing library                : x264 core 157 r2935 545de2f


Audio #1

ID                             : 2

Format                         : AAC LC

Format/Info                    : Advanced Audio Codec Low Complexity

Codec ID                       : A_AAC-2

Duration                       : 1 h 40 min

Bit rate                       : 96.0 kb/s

Channel(s)                     : 2 channels

Channel layout                 : L R

Sampling rate                  : 44.1 kHz

Frame rate                     : 43.066 FPS (1024 SPF)

Compression mode               : Lossy

Stream size                    : 69.6 MiB (7%)

Title                          : GOPI SAHI

Language                       : Hindi

Default                        : Yes

Forced                         : No


Audio #2

ID                             : 3

Format                         : AAC LC

Format/Info                    : Advanced Audio Codec Low Complexity

Codec ID                       : A_AAC-2

Duration                       : 1 h 40 min

Bit rate                       : 96.0 kb/s

Channel(s)                     : 2 channels

Channel layout                 : L R

Sampling rate                  : 48.0 kHz

Frame rate                     : 46.875 FPS (1024 SPF)

Compression mode               : Lossy

Delay relative to video        : -1 ms

Stream size                    : 69.6 MiB (7%)

Title                          : GOPI SAHI

Language                       : English

Default                        : No

Forced                         : No


Audio #3

ID                             : 4

Format                         : AAC LC

Format/Info                    : Advanced Audio Codec Low Complexity

Codec ID                       : A_AAC-2

Duration                       : 1 h 40 min

Bit rate                       : 96.0 kb/s

Channel(s)                     : 2 channels

Channel layout                 : L R

Sampling rate                  : 48.0 kHz

Frame rate                     : 46.875 FPS (1024 SPF)

Compression mode               : Lossy

Delay relative to video        : -1 ms

Stream size                    : 69.6 MiB (7%)

Title                          : GOPI SAHI

Language                       : Spanish

Default                        : No

Forced                         : No


Text

ID                             : 5

Format                         : VobSub

Muxing mode                    : zlib

Codec ID                       : S_VOBSUB

Codec ID/Info                  : Picture based subtitle format used on DVDs

Duration                       : 1 h 33 min

Bit rate                       : 15.0 kb/s

Count of elements              : 1923

Stream size                    : 10.0 MiB (1%)

Title                          : GOPI SAHI

Language                       : English

Default                        : No

Forced                         : No





MAGNET


TORRENT


TORRENT 2 480P AND 720P CHOOSE WHICH ONE DWONLOAD


GDRIVE FILE COPY


DWONLOAD AUTO START IN 20 SEC 


DOWNLOAD AND ONLINE TERABOX LINK = PASSWORD = jujy


GROWN 1-2 SIZE 2.50 GB DWONLOAD AUTO START IN 20 SEC ZIP FILE


RU


MEDIAFIRE


DWNLOAD AND ONLINE


ONLINE 720P

 

 

Post a Comment

0 Comments