Grown Ups 2010 x264 720p Esub BluRay Dual Audio English Hindi THE GOPI SAHI

Grown Ups (2010)

PG-13 06/24/2010 (US) Comedy 1h 42m

Boys will be boys. . . some longer than others.

Overview

After their high school basketball coach passes away, five good friends and former teammates reunite for a Fourth of July holiday weekend.

 

Directed byDennis Dugan
Produced by
Written by
Starring
Music byRupert Gregson-Williams
CinematographyTheo van de Sande
Edited byTom Costain
Production
companies
Distributed bySony Pictures Releasing
Release date
  • June 25, 2010
Running time
102 minutes
CountryUnited States
LanguageEnglish
Budget$80 million[1]
Box office$271.4 million[1]

Grown Ups 2010 x264 720p Esub BluRay Dual Audio English Hindi THE GOPI SAHI


Format                         : Matroska

Format version                 : Version 4

File size                      : 1.07 GiB

Duration                       : 1 h 42 min

Overall bit rate               : 1 492 kb/s

Movie name                     : Grown Ups 2010 GOPI SAHI

Encoded date                   : UTC 2021-06-15 07:47:29


Video

ID                             : 1

Format                         : AVC

Format/Info                    : Advanced Video Codec

Format profile                 : [email protected]

Format settings                : CABAC / 5 Ref Frames

Format settings, CABAC         : Yes

Format settings, Reference fra : 5 frames

Codec ID                       : V_MPEG4/ISO/AVC

Duration                       : 1 h 42 min

Bit rate                       : 1 098 kb/s

Width                          : 1 280 pixels

Height                         : 694 pixels

Display aspect ratio           : 1.85:1

Frame rate mode                : Constant

Frame rate                     : 23.976 (24000/1001) FPS

Color space                    : YUV

Chroma subsampling             : 4:2:0

Bit depth                      : 8 bits

Scan type                      : Progressive

Bits/(Pixel*Frame)             : 0.052

Stream size                    : 803 MiB (74%)

Title                          : GOPI SAHI

Writing library                : x264 core 157 r2935 545de2f


Audio #1

ID                             : 2

Format                         : AAC LC

Format/Info                    : Advanced Audio Codec Low Complexity

Codec ID                       : A_AAC-2

Duration                       : 1 h 42 min

Bit rate                       : 192 kb/s

Channel(s)                     : 6 channels

Channel layout                 : C L R Ls Rs LFE

Sampling rate                  : 44.1 kHz

Frame rate                     : 43.066 FPS (1024 SPF)

Compression mode               : Lossy

Stream size                    : 141 MiB (13%)

Title                          : GOPI SAHI

Language                       : Hindi

Default                        : Yes

Forced                         : No


Audio #2

ID                             : 3

Format                         : AAC LC

Format/Info                    : Advanced Audio Codec Low Complexity

Codec ID                       : A_AAC-2

Duration                       : 1 h 42 min

Bit rate                       : 192 kb/s

Channel(s)                     : 6 channels

Channel layout                 : C L R Ls Rs LFE

Sampling rate                  : 48.0 kHz

Frame rate                     : 46.875 FPS (1024 SPF)

Compression mode               : Lossy

Delay relative to video        : -1 ms

Stream size                    : 141 MiB (13%)

Title                          : GOPI SAHI

Language                       : English

Default                        : No

Forced                         : No


Text

ID                             : 4

Format                         : VobSub

Muxing mode                    : zlib

Codec ID                       : S_VOBSUB

Codec ID/Info                  : Picture based subtitle format used on DVDs

Duration                       : 1 h 38 min

Bit rate                       : 12.6 kb/s

Count of elements              : 1938

Stream size                    : 8.86 MiB (1%)

Title                          : GOPI SAHI

Language                       : English

Default                        : No

Forced                         : No


Menu

00:00:00.000                   : :Chapter 1

00:06:12.831                   : :Chapter 2

00:15:50.992                   : :Chapter 3

00:20:51.375                   : :Chapter 4

00:25:04.503                   : :Chapter 5

00:28:42.721                   : :Chapter 6

00:37:09.853                   : :Chapter 7

00:42:57.033                   : :Chapter 8

00:50:19.225                   : :Chapter 9

00:54:30.601                   : :Chapter 10

01:00:19.074                   : :Chapter 11

01:06:52.425                   : :Chapter 12

01:12:04.070                   : :Chapter 13

01:17:28.978                   : :Chapter 14

01:24:11.088                   : :Chapter 15

01:31:01.039                   : :Chapter 16




MAGNET


TORRENT


TORRENT 2 480P AND 720P CHOOSE WHICH ONE DWONLOAD


GDRIVE FILE COPY


DWONLOAD AUTO START IN 20 SEC 


DOWNLOAD AND ONLINE TERABOX LINK = PASSWORD = qcab


GROWN 1-2 SIZE 2.05 GB DWONLOAD AUTO START IN 20 SEC ZIP FILE


RU


MEDIAFIRE


DWNLOAD AND ONLINE


ONLINE 720P


Post a Comment

0 Comments