John Wick 2014 x264 720p Esub BluRay Dual Audio English Hindi THE GOPI SAHI

John Wick (2014)

R 10/24/2014 (US) ActionThriller 1h 41m 

Don't set him off.

Overview

Ex-hitman John Wick comes out of retirement to track down the gangsters that took everything from him.

Directed byChad Stahelski[a]
Produced by
Written byDerek Kolstad
Starring
Music by
CinematographyJonathan Sela
Edited byElĂ­sabet Ronalds
Production
companies
Distributed byLionsgate
Release date
  • September 19, 2014 (Fantastic Fest)
  • October 24, 2014 (United States)
Running time
101 minutes[2]
CountryUnited States
Languages
  • English
  • Russian
Budget$20–30 million[3][4][5]
Box office$86 million[3]


 

 

John Wick 2014 x264 720p Esub BluRay Dual Audio English Hindi THE GOPI SAHI


Format                         : Matroska
Format version                 : Version 4
File size                      : 799 MiB
Duration                       : 1 h 41 min
Overall bit rate               : 1 104 kb/s
Movie name                     : John Wick 2014 GOPISAHI
Encoded date                   : UTC 2020-04-21 02:46:55
Writing application            : mkvmerge v45.0.0 ('Heaven in Pennies') 64-bit
Writing library                : libebml v1.3.10 + libmatroska v1.5.2
Attachments                    : Ronin Encodes.jpg

Video
ID                             : 1
Format                         : AVC
Format/Info                    : Advanced Video Codec
Format profile                 : [email protected]
Format settings                : CABAC / 5 Ref Frames
Format settings, CABAC         : Yes
Format settings, Reference fra : 5 frames
Codec ID                       : V_MPEG4/ISO/AVC
Duration                       : 1 h 41 min
Bit rate                       : 899 kb/s
Width                          : 1 280 pixels
Height                         : 534 pixels
Display aspect ratio           : 2.40:1
Frame rate mode                : Constant
Frame rate                     : 23.976 (24000/1001) FPS
Color space                    : YUV
Chroma subsampling             : 4:2:0
Bit depth                      : 8 bits
Scan type                      : Progressive
Bits/(Pixel*Frame)             : 0.055
Stream size                    : 650 MiB (81%)
Title                          : GOPISAHI
Writing library                : x264 core 157 r2935 545de2f

Audio #1
ID                             : 2
Format                         : AAC LC
Format/Info                    : Advanced Audio Codec Low Complexity
Codec ID                       : A_AAC-2
Duration                       : 1 h 41 min
Bit rate                       : 96.0 kb/s
Channel(s)                     : 2 channels
Channel layout                 : L R
Sampling rate                  : 48.0 kHz
Frame rate                     : 46.875 FPS (1024 SPF)
Compression mode               : Lossy
Delay relative to video        : 1 s 279 ms
Stream size                    : 70.0 MiB (9%)
Title                          : GOPISAHI
Language                       : Hindi
Default                        : Yes
Forced                         : No

Audio #2
ID                             : 3
Format                         : AAC LC
Format/Info                    : Advanced Audio Codec Low Complexity
Codec ID                       : A_AAC-2
Duration                       : 1 h 41 min
Bit rate                       : 96.0 kb/s
Channel(s)                     : 2 channels
Channel layout                 : L R
Sampling rate                  : 48.0 kHz
Frame rate                     : 46.875 FPS (1024 SPF)
Compression mode               : Lossy
Delay relative to video        : 19 ms
Stream size                    : 69.7 MiB (9%)
Title                          : GOPISAHI
Language                       : English
Default                        : No
Forced                         : No

Text #1
ID                             : 4
Format                         : PGS
Muxing mode                    : zlib
Codec ID                       : S_HDMV/PGS
Codec ID/Info                  : Picture based subtitle format used on BDs/HD-DVDs
Duration                       : 1 h 33 min
Bit rate                       : 16.3 kb/s
Count of elements              : 1121
Stream size                    : 10.9 MiB (1%)
Title                          : GOPISAHI
Language                       : English
Default                        : No
Forced                         : No

Text #2
ID                             : 5
Format                         : PGS
Muxing mode                    : zlib
Codec ID                       : S_HDMV/PGS
Codec ID/Info                  : Picture based subtitle format used on BDs/HD-DVDs
Duration                       : 1 h 40 min
Bit rate                       : 22.4 kb/s
Count of elements              : 1745
Stream size                    : 16.1 MiB (2%)
Title                          : GOPISAHI
Language                       : English
Default                        : No
Forced                         : No

Menu #1
00:00:00.000                   : :Chapter 1
00:04:57.672                   : :Chapter 2
00:12:21.908                   : :Chapter 3
00:17:07.818                   : :Chapter 4
00:26:25.250                   : :Chapter 5
00:32:40.375                   : :Chapter 6
00:36:24.683                   : :Chapter 7
00:42:16.200                   : :Chapter 8
00:45:33.314                   : :Chapter 9
00:55:02.633                   : :Chapter 10
00:59:27.647                   : :Chapter 11
01:06:13.595                   : :Chapter 12
01:14:15.910                   : :Chapter 13
01:19:13.165                   : :Chapter 14
01:27:29.995                   : :Chapter 15
01:32:24.831                   : :Chapter 16

Menu #2
00:00:00.000                   : en:Chapter 01
00:04:57.505                   : en:Chapter 02
00:12:21.866                   : en:Chapter 03
00:17:07.735                   : en:Chapter 04
00:26:25.166                   : en:Chapter 05
00:32:40.249                   : en:Chapter 06
00:36:24.599                   : en:Chapter 07
00:42:16.033                   : en:Chapter 08
00:45:33.272                   : en:Chapter 09
00:55:02.507                   : en:Chapter 10
00:59:27.564                   : en:Chapter 11
01:06:13.427                   : en:Chapter 12
01:14:15.909                   : en:Chapter 13
01:19:13.039                   : en:Chapter 14
01:27:29.786                   : en:Chapter 15
01:32:24.789                   : en:Chapter 16




MAGNET

TORRENT

TORRENT 2 480P AND 720P CHOOSE WHICH ONE DWONLOAD

GDRIVE FILE COPY

DWONLOAD AUTO START IN 20 SEC

DOWNLOAD AND ONLINE TERABOX LINK = PASSWORD = deit

DWONLOAD AUTO START IN 20 SEC ZIP FILE

578 MB HINDI 480P DWONLOAD AUTO START IN 20 SEC

MEDIAFIRE

DWNLOAD AND ONLINE

ONLINE 720P