John Wick Chapter 2 2017 x264 720p Esub BluRay Dual Audio English Hindi THE GOPI SAHI

John Wick: Chapter 2 (2017)

A 02/24/2017 (IN) ThrillerActionCrime 2h 2m 

Never stab the devil in the back

Overview

John Wick is forced out of retirement by a former associate looking to seize control of a shadowy international assassins’ guild. Bound by a blood oath to aid him, Wick travels to Rome and does battle against some of the world’s most dangerous killers.

 
Directed byChad Stahelski
Produced by
Written byDerek Kolstad
Based onCharacters
by Derek Kolstad
Starring
Music by
CinematographyDan Laustsen
Edited byEvan Schiff
Production
companies
Distributed byLionsgate
Release date
Running time
122 minutes[1]
CountryUnited States
LanguageEnglish
Budget$40 million[2]
Box office$171.5 million[3]
 

 
John Wick Chapter 2 2017 x264 720p Esub BluRay Dual Audio English Hindi THE GOPI SAHI

Format                         : Matroska
Format version                 : Version 4
File size                      : 960 MiB
Duration                       : 2 h 2 min
Overall bit rate               : 1 096 kb/s
Movie name                     : John Wick Chapter 2 2017 GOPISAHI
Encoded date                   : UTC 2020-04-21 02:49:49
Attachments                    : Ronin Encodes.jpg

Video
ID                             : 1
Format                         : AVC
Format/Info                    : Advanced Video Codec
Format profile                 : [email protected]
Format settings                : CABAC / 5 Ref Frames
Format settings, CABAC         : Yes
Format settings, Reference fra : 5 frames
Codec ID                       : V_MPEG4/ISO/AVC
Duration                       : 2 h 2 min
Bit rate                       : 899 kb/s
Width                          : 1 280 pixels
Height                         : 534 pixels
Display aspect ratio           : 2.40:1
Frame rate mode                : Constant
Frame rate                     : 23.976 (24000/1001) FPS
Color space                    : YUV
Chroma subsampling             : 4:2:0
Bit depth                      : 8 bits
Scan type                      : Progressive
Bits/(Pixel*Frame)             : 0.055
Stream size                    : 787 MiB (82%)
Title                          : GOPISAHI
Writing library                : x264 core 157 r2935 545de2f

Audio #1
ID                             : 2
Format                         : AAC LC
Format/Info                    : Advanced Audio Codec Low Complexity
Codec ID                       : A_AAC-2
Duration                       : 2 h 2 min
Bit rate                       : 96.0 kb/s
Channel(s)                     : 2 channels
Channel layout                 : L R
Sampling rate                  : 48.0 kHz
Frame rate                     : 46.875 FPS (1024 SPF)
Compression mode               : Lossy
Delay relative to video        : -21 ms
Stream size                    : 84.5 MiB (9%)
Title                          : GOPISAHI
Language                       : Hindi
Default                        : Yes
Forced                         : No

Audio #2
ID                             : 3
Format                         : AAC LC
Format/Info                    : Advanced Audio Codec Low Complexity
Codec ID                       : A_AAC-2
Duration                       : 2 h 2 min
Bit rate                       : 96.0 kb/s
Channel(s)                     : 2 channels
Channel layout                 : L R
Sampling rate                  : 48.0 kHz
Frame rate                     : 46.875 FPS (1024 SPF)
Compression mode               : Lossy
Delay relative to video        : 19 ms
Stream size                    : 84.4 MiB (9%)
Title                          : GOPISAHI
Language                       : English
Default                        : No
Forced                         : No

Text
ID                             : 4
Format                         : UTF-8
Codec ID                       : S_TEXT/UTF8
Codec ID/Info                  : UTF-8 Plain Text
Duration                       : 1 h 49 min
Bit rate                       : 21 b/s
Count of elements              : 669
Stream size                    : 17.6 KiB (0%)
Title                          : GOPISAHI
Language                       : English
Default                        : No
Forced                         : No

Menu
00:00:00.000                   : :Chapter 1
00:06:31.808                   : :Chapter 2
00:16:57.975                   : :Chapter 3
00:26:35.594                   : :Chapter 4
00:34:38.159                   : :Chapter 5
00:42:07.859                   : :Chapter 6
00:48:07.134                   : :Chapter 7
00:56:41.690                   : :Chapter 8
01:01:42.949                   : :Chapter 9
01:10:27.765                   : :Chapter 10
01:17:15.965                   : :Chapter 11
01:24:22.766                   : :Chapter 12
01:32:11.359                   : :Chapter 13
01:40:01.454                   : :Chapter 14
01:46:34.930                   : :Chapter 15
01:54:01.209                   : :Chapter 16



 

 MAGNET

TORRENT

TORRENT 2 480P AND 720P CHOOSE WHICH ONE DWONLOAD

GDRIVE FILE COPY

DWONLOAD AUTO START IN 20 SEC


DOWNLOAD AND ONLINE TERABOX LINK = PASSWORD = q6rm

John Wick 2-3  2GB DWONLOAD AUTO START IN 20 SEC ZIP FILE

701 MB HINDI 480P DWONLOAD AUTO START IN 20 SEC

MEDIAFIRE

DWNLOAD AND ONLINE

ONLINE 720P


Post a Comment

0 Comments