Just Go With It 2011 x264 720p Esub BluRay Dual Audio English Hindi THE GOPI SAHI

Just Go with It (2011)

PG-13 02/11/2011 (US) ComedyRomance 1h 57m 
 

Sometimes a guy's best wingman... is a wingwoman

Overview

A plastic surgeon, romancing a much younger schoolteacher, enlists his loyal assistant to pretend to be his soon to be ex-wife, in order to cover up a careless lie. When more lies backfire, the assistant's kids become involved, and everyone heads off for a weekend in Hawaii that will change all their lives.

Directed byDennis Dugan
Produced by
Screenplay by
Based onCactus Flower
by I. A. L. Diamond
Cactus Flower
by Abe Burrows
Pierre Barillet
Jean-Pierre Gredy [fr]
Starring
Music byRupert Gregson-Williams
CinematographyTheo van de Sande
Edited byTom Costain
Production
companies
Distributed bySony Pictures Releasing
Release date
  • February 8, 2011 (New York City)
  • February 11, 2011 (United States)
Running time
117 minutes
CountryUnited States
LanguageEnglish
Budget$80 million[1]
Box office$215 million[2]

 


 Just Go With It 2011 x264 720p Esub BluRay Dual Audio English Hindi THE GOPI SAHI

Format                         : Matroska
Format version                 : Version 4
File size                      : 926 MiB
Duration                       : 1 h 56 min
Overall bit rate               : 1 112 kb/s
Movie name                     : Just Go With It 2011 GOPI SAHI
Encoded date                   : UTC 2021-06-02 09:19:49

Video
ID                             : 1
Format                         : AVC
Format/Info                    : Advanced Video Codec
Format profile                 : [email protected]
Format settings                : CABAC / 5 Ref Frames
Format settings, CABAC         : Yes
Format settings, Reference fra : 5 frames
Codec ID                       : V_MPEG4/ISO/AVC
Duration                       : 1 h 56 min
Bit rate                       : 899 kb/s
Width                          : 1 280 pixels
Height                         : 690 pixels
Display aspect ratio           : 1.85:1
Frame rate mode                : Constant
Frame rate                     : 23.976 (24000/1001) FPS
Color space                    : YUV
Chroma subsampling             : 4:2:0
Bit depth                      : 8 bits
Scan type                      : Progressive
Bits/(Pixel*Frame)             : 0.042
Stream size                    : 749 MiB (81%)
Title                          : GOPI SAHI
Writing library                : x264 core 157 r2935 545de2f

Audio #1
ID                             : 2
Format                         : AAC LC
Format/Info                    : Advanced Audio Codec Low Complexity
Codec ID                       : A_AAC-2
Duration                       : 1 h 56 min
Bit rate                       : 96.0 kb/s
Channel(s)                     : 2 channels
Channel layout                 : L R
Sampling rate                  : 48.0 kHz
Frame rate                     : 46.875 FPS (1024 SPF)
Compression mode               : Lossy
Delay relative to video        : -5 ms
Stream size                    : 80.2 MiB (9%)
Title                          : GOPI SAHI
Language                       : Hindi
Default                        : Yes
Forced                         : No

Audio #2
ID                             : 3
Format                         : AAC LC
Format/Info                    : Advanced Audio Codec Low Complexity
Codec ID                       : A_AAC-2
Duration                       : 1 h 56 min
Bit rate                       : 96.0 kb/s
Channel(s)                     : 2 channels
Channel layout                 : L R
Sampling rate                  : 48.0 kHz
Frame rate                     : 46.875 FPS (1024 SPF)
Compression mode               : Lossy
Delay relative to video        : -21 ms
Stream size                    : 80.3 MiB (9%)
Title                          : GOPI SAHI
Language                       : English
Default                        : No
Forced                         : No

Text
ID                             : 4
Format                         : PGS
Muxing mode                    : zlib
Codec ID                       : S_HDMV/PGS
Codec ID/Info                  : Picture based subtitle format used on BDs/HD-DVDs
Duration                       : 1 h 49 min
Bit rate                       : 62.5 kb/s
Count of elements              : 4220
Stream size                    : 48.8 MiB (5%)
Title                          : GOPI SAHI
Language                       : English
Default                        : No
Forced                         : No

Menu
00:00:00.000                   : :00:00:00.000
00:05:03.637                   : :00:05:03.136
00:13:05.785                   : :00:13:04.409
00:21:29.622                   : :00:21:29.121
00:29:16.755                   : :00:29:15.837
00:34:20.392                   : :00:34:19.099
00:44:12.650                   : :00:44:11.107
00:49:54.658                   : :00:49:54.617
00:56:03.360                   : :00:56:02.317
01:03:25.468                   : :01:03:24.968
01:08:34.110                   : :01:08:33.026
01:16:16.238                   : :01:16:15.654
01:24:46.748                   : :01:24:45.998
01:31:32.153                   : :01:31:30.777
01:39:27.628                   : :01:39:27.295
01:46:11.365                   : :01:46:09.863




 MAGNET

TORRENT

TORRENT 2 480P AND 720P CHOOSE WHICH ONE DWONLOAD

GDRIVE FILE COPY


DWONLOAD AUTO START IN 20 SEC

DOWNLOAD AND ONLINE TERABOX LINK = PASSWORD = mptc

DWONLOAD AUTO START IN 20 SEC ZIP FILE

652 MB HINDI 480P DWONLOAD AUTO START IN 20 SEC

MULTIUP

MEDIAFIRE

DWNLOAD AND ONLINE

ONLINE 720P