Machete 2010 x264 720p Esub BluRay Dual Audio English Hindi THE GOPI SAHI

Machete (2010)

R 09/03/2010 (US) ActionComedyThriller 1h 45m

He was given an offer he couldn't refuse...

Overview

After being set-up and betrayed by the man who hired him to assassinate a Texas Senator, an ex-Federale launches a brutal rampage of revenge against his former boss.

Directed byRobert Rodriguez
Ethan Maniquis
Produced byRobert Rodriguez
Elizabeth Avellán
Rick Schwartz
Written byRobert Rodriguez
Álvaro Rodriguez
StarringDanny Trejo
Steven Seagal
Michelle Rodriguez
Jeff Fahey
Cheech Marin
Lindsay Lohan
Don Johnson
Jessica Alba
Robert De Niro
Music byChingon[1]
CinematographyJimmy Lindsey
Edited byRobert Rodriguez
Rebecca Rodriguez
Production
companies
Distributed by20th Century Fox[2]
(North America and United Kingdom)
Sony Pictures Releasing International
(International)
Release date
  • September 1, 2010 (Venice Film Festival)
  • September 3, 2010
Running time
105 minutes[3]
CountryUnited States
LanguagesEnglish
Spanish
Budget$10.5 million[4][5]
Box office$44.1 million[5]


Machete 2010 x264 720p Esub BluRay Dual Audio English Hindi THE GOPI SAHI


Format                         : Matroska

Format version                 : Version 4

File size                      : 822 MiB

Duration                       : 1 h 44 min

Overall bit rate               : 1 094 kb/s

Movie name                     : Machete 2010 GOPI SAHI

Encoded date                   : UTC 2020-06-01 06:07:34


Video

ID                             : 1

Format                         : AVC

Format/Info                    : Advanced Video Codec

Format profile                 : [email protected]

Format settings                : CABAC / 5 Ref Frames

Format settings, CABAC         : Yes

Format settings, Reference fra : 5 frames

Codec ID                       : V_MPEG4/ISO/AVC

Duration                       : 1 h 44 min

Bit rate                       : 899 kb/s

Width                          : 1 280 pixels

Height                         : 692 pixels

Display aspect ratio           : 1.85:1

Frame rate mode                : Constant

Frame rate                     : 23.976 (24000/1001) FPS

Color space                    : YUV

Chroma subsampling             : 4:2:0

Bit depth                      : 8 bits

Scan type                      : Progressive

Bits/(Pixel*Frame)             : 0.042

Stream size                    : 675 MiB (82%)

Title                          : GOPI SAHI

Writing library                : x264 core 157 r2935 545de2f


Audio #1

ID                             : 2

Format                         : AAC LC

Format/Info                    : Advanced Audio Codec Low Complexity

Codec ID                       : A_AAC-2

Duration                       : 1 h 44 min

Bit rate                       : 96.0 kb/s

Channel(s)                     : 2 channels

Channel layout                 : L R

Sampling rate                  : 48.0 kHz

Frame rate                     : 46.875 FPS (1024 SPF)

Compression mode               : Lossy

Delay relative to video        : -21 ms

Stream size                    : 72.4 MiB (9%)

Title                          : GOPI SAHI

Language                       : Hindi

Default                        : Yes

Forced                         : No


Audio #2

ID                             : 3

Format                         : AAC LC

Format/Info                    : Advanced Audio Codec Low Complexity

Codec ID                       : A_AAC-2

Duration                       : 1 h 44 min

Bit rate                       : 96.0 kb/s

Channel(s)                     : 2 channels

Channel layout                 : L R

Sampling rate                  : 48.0 kHz

Frame rate                     : 46.875 FPS (1024 SPF)

Compression mode               : Lossy

Delay relative to video        : -12 ms

Stream size                    : 72.5 MiB (9%)

Title                          : GOPI SAHI

Language                       : English

Default                        : No

Forced                         : No


Text

ID                             : 4

Format                         : UTF-8

Codec ID                       : S_TEXT/UTF8

Codec ID/Info                  : UTF-8 Plain Text

Duration                       : 1 h 39 min

Bit rate                       : 48 b/s

Count of elements              : 1228

Stream size                    : 35.5 KiB (0%)

Title                          : GOPI SAHI

Language                       : English

Default                        : Yes

Forced                         : No


Menu

00:00:00.000                   : :Chapter 1

00:06:07.951                   : :Chapter 2

00:07:43.338                   : :Chapter 3

00:12:39.050                   : :Chapter 4

00:16:16.100                   : :Chapter 5

00:23:05.217                   : :Chapter 6

00:27:21.348                   : :Chapter 7

00:29:07.371                   : :Chapter 8

00:34:02.457                   : :Chapter 9

00:37:53.646                   : :Chapter 10

00:39:47.260                   : :Chapter 11

00:44:11.983                   : :Chapter 12

00:47:41.192                   : :Chapter 13

00:50:52.967                   : :Chapter 14

00:53:12.815                   : :Chapter 15

00:57:32.574                   : :Chapter 16

00:59:40.577                   : :Chapter 17

01:03:48.116                   : :Chapter 18

01:07:57.240                   : :Chapter 19

01:12:05.446                   : :Chapter 20

01:15:04.208                   : :Chapter 21

01:21:37.643                   : :Chapter 22

01:24:04.748                   : :Chapter 23

01:25:50.354                   : :Chapter 24

01:28:04.780                   : :Chapter 25

01:33:56.548                   : :Chapter 26

01:38:01.959                   : :Chapter 27

01:40:47.542                   : :Chapter 28





MAGNET


TORRENT


TORRENT 2 480P AND 720P CHOOSE WHICH ONE DWONLOAD


GDRIVE FILE COPY


DWONLOAD AUTO START IN 20 SEC 


DOWNLOAD AND ONLINE TERABOX LINK = PASSWORD = 5bpv


DWONLOAD AUTO START IN 20 SEC ZIP FILE

 

                                                                              RU

 

MEDIAFIRE


DWNLOAD AND ONLINE


ONLINE 720P


Post a Comment

2 Comments

No Except Any Movie Request Here,Try To Donate Money For Website Then Request, If You No Donate Way Post Request Here ,Nonprofit Services, No Ads, No Any Earning, If Download Link Not Work Post a Comment On Movie Page For Re-upload, Post a Comment On Any Movie Page If You Donate For This Website, Thanks Keep Support. Any Torrent-Magnet Not Reseed,Seed Only First 30 Days,Then Use Google Drive For Download.