Train to Busan 2 Peninsula 2020 x264 720p BluRay Dual Audio English Hindi THE GOPI SAHI

Peninsula (2020)

NR 07/15/2020 (KR) ActionHorrorThriller 1h 56m 

Escape the apocalypse.

Overview

A soldier and his team battle hordes of post-apocalyptic zombies in the wastelands of the Korean Peninsula.

 

Directed byYeon Sang-ho
Produced byLee Dong-ha
Written by
  • Park Joo-Suk
  • Yeon Sang-ho
  • Ryu Yong-jae
Starring
Music byMowg
CinematographyLee Hyung-deok
Edited byYang Jin-mo
Production
companies
Distributed byNext Entertainment World
Release date
  • July 15, 2020 (South Korea)
Running time
116 minutes
CountrySouth Korea
Languages
  • Korean
  • English
  • Cantonese
  • Polish
Budget$16 million[1]
Box office$42.7 million[2][3]


Peninsula 2020 x264 720p BluRay Dual Audio English Hindi THE GOPI SAHI


Format                         : Matroska
Format version                 : Version 4
File size                      : 907 MiB
Duration                       : 1 h 55 min
Overall bit rate               : 1 094 kb/s
Movie name                     : Peninsula 2020 GOPI SAHI
Encoded date                   : UTC 2021-06-17 06:39:06

Video
ID                             : 1
Format                         : AVC
Format/Info                    : Advanced Video Codec
Format profile                 : [email protected]
Format settings                : CABAC / 5 Ref Frames
Format settings, CABAC         : Yes
Format settings, Reference fra : 5 frames
Codec ID                       : V_MPEG4/ISO/AVC
Duration                       : 1 h 55 min
Bit rate                       : 899 kb/s
Width                          : 1 280 pixels
Height                         : 534 pixels
Display aspect ratio           : 2.40:1
Frame rate mode                : Constant
Frame rate                     : 24.000 FPS
Color space                    : YUV
Chroma subsampling             : 4:2:0
Bit depth                      : 8 bits
Scan type                      : Progressive
Bits/(Pixel*Frame)             : 0.055
Stream size                    : 745 MiB (82%)
Title                          : GOPI SAHI
Writing library                : x264 core 157 r2935 545de2f

Audio #1
ID                             : 2
Format                         : AAC LC
Format/Info                    : Advanced Audio Codec Low Complexity
Codec ID                       : A_AAC-2
Duration                       : 1 h 55 min
Bit rate                       : 96.0 kb/s
Channel(s)                     : 2 channels
Channel layout                 : L R
Sampling rate                  : 48.0 kHz
Frame rate                     : 46.875 FPS (1024 SPF)
Compression mode               : Lossy
Delay relative to video        : -21 ms
Stream size                    : 79.9 MiB (9%)
Title                          : GOPI SAHI
Language                       : Hindi
Default                        : Yes
Forced                         : No

Audio #2
ID                             : 3
Format                         : AAC LC
Format/Info                    : Advanced Audio Codec Low Complexity
Codec ID                       : A_AAC-2
Duration                       : 1 h 55 min
Bit rate                       : 96.0 kb/s
Channel(s)                     : 2 channels
Channel layout                 : L R
Sampling rate                  : 48.0 kHz
Frame rate                     : 46.875 FPS (1024 SPF)
Compression mode               : Lossy
Delay relative to video        : -21 ms
Stream size                    : 79.9 MiB (9%)
Title                          : GOPI SAHI
Language                       : English
Default                        : No
Forced                         : No

Menu
00:00:00.000                   : :Chapter 1
00:09:46.000                   : :Chapter 2
00:19:00.042                   : :Chapter 3
00:27:26.125                   : :Chapter 4
00:39:41.000                   : :Chapter 5
00:46:32.083                   : :Chapter 6
00:58:45.125                   : :Chapter 7
01:08:45.000                   : :Chapter 8
01:18:08.125                   : :Chapter 9
01:29:02.000                   : :Chapter 10
01:39:41.083                   : :Chapter 11
01:51:12.042                   : :Chapter 12





MAGNET

TORRENT

TORRENT 2 480P AND 720P CHOOSE WHICH ONE DWONLOAD

GDRIVE FILE COPY


DWONLOAD AUTO START IN 20 SEC

DOWNLOAD AND ONLINE TERABOX LINK = PASSWORD = hiup

DWONLOAD AUTO START IN 20 SEC ZIP FILE

MEDIAFIRE

RU

DWNLOAD AND ONLINE

ONLINE 720P

 

Post a Comment

0 Comments