Scary Movie 2 2001 x264 720p Esub BluRay Dual Audio English Hindi THE GOPI SAHI

Scary Movie 2 (2001)

R 07/04/2001 (US) Comedy 1h 23m

No More Mercy. No More Shame. No More Sequels - Honest! - We Lied.

Overview

While the original parodied slasher flicks like Scream, Keenen Ivory Wayans's sequel to Scary Movie takes comedic aim at haunted house movies. A group of students visit a mansion called "Hell House," and murderous high jinks ensue.


Directed byKeenen Ivory Wayans
Produced byEric L. Gold
Written by
Based onCharacters
Starring
Music byMark McGrath
CinematographySteven Bernstein
Edited by
Production
companies
  • Gold/Miller Productions[1]
  • Wayans Bros. Entertainment[1]
  • Brad Grey Pictures[1]
Distributed byDimension Films[1]
Release date
  • July 4, 2001
Running time
82 minutes[2]
CountryUnited States
LanguageEnglish
Budget$45 million[3]
Box office$141.2 million[3]


Scary Movie 2 2001 x264 720p Esub BluRay Dual Audio English Hindi THE GOPI SAHI


Format                         : Matroska

Format version                 : Version 4

File size                      : 649 MiB

Duration                       : 1 h 22 min

Overall bit rate               : 1 100 kb/s

Movie name                     : 2 Scary Movie 2 2001 GOPI SAHI

Encoded date                   : UTC 2021-01-18 04:15:49


Video

ID                             : 1

Format                         : AVC

Format/Info                    : Advanced Video Codec

Format profile                 : [email protected]

Format settings                : CABAC / 5 Ref Frames

Format settings, CABAC         : Yes

Format settings, Reference fra : 5 frames

Codec ID                       : V_MPEG4/ISO/AVC

Duration                       : 1 h 22 min

Bit rate                       : 899 kb/s

Width                          : 1 280 pixels

Height                         : 720 pixels

Display aspect ratio           : 16:9

Frame rate mode                : Constant

Frame rate                     : 23.976 (24000/1001) FPS

Color space                    : YUV

Chroma subsampling             : 4:2:0

Bit depth                      : 8 bits

Scan type                      : Progressive

Bits/(Pixel*Frame)             : 0.041

Stream size                    : 530 MiB (82%)

Title                          : GOPI SAHI

Writing library                : x264 core 157 r2935 545de2f


Audio #1

ID                             : 2

Format                         : AAC LC

Format/Info                    : Advanced Audio Codec Low Complexity

Codec ID                       : A_AAC-2

Duration                       : 1 h 22 min

Bit rate                       : 96.0 kb/s

Channel(s)                     : 2 channels

Channel layout                 : L R

Sampling rate                  : 48.0 kHz

Frame rate                     : 46.875 FPS (1024 SPF)

Compression mode               : Lossy

Delay relative to video        : -21 ms

Stream size                    : 56.8 MiB (9%)

Title                          : GOPI SAHI

Language                       : Hindi

Default                        : Yes

Forced                         : No


Audio #2

ID                             : 3

Format                         : AAC LC

Format/Info                    : Advanced Audio Codec Low Complexity

Codec ID                       : A_AAC-2

Duration                       : 1 h 22 min

Bit rate                       : 96.0 kb/s

Channel(s)                     : 2 channels

Channel layout                 : L R

Sampling rate                  : 48.0 kHz

Frame rate                     : 46.875 FPS (1024 SPF)

Compression mode               : Lossy

Delay relative to video        : -21 ms

Stream size                    : 56.8 MiB (9%)

Title                          : GOPI SAHI

Language                       : English

Default                        : No

Forced                         : No


Text

ID                             : 4

Format                         : VobSub

Muxing mode                    : zlib

Codec ID                       : S_VOBSUB

Codec ID/Info                  : Picture based subtitle format used on DVDs

Duration                       : 1 h 14 min

Bit rate                       : 10.4 kb/s

Count of elements              : 2276

Stream size                    : 5.53 MiB (1%)

Title                          : GOPI SAHI

Language                       : English

Default                        : No

Forced                         : No




MAGNET


TORRENT


TORRENT 2 480P AND 720P CHOOSE WHICH ONE DWONLOAD


GDRIVE FILE COPY


DWONLOAD AUTO START IN 20 SEC 


DOWNLOAD AND ONLINE TERABOX LINK = PASSWORD = 7hdx


4 MOVIE SCARY 2.70 GB DWONLOAD AUTO START IN 20 SEC ZIP FILE

 

MEDIAFIRE


DWNLOAD AND ONLINE


ONLINE 720P


 

Post a Comment

0 Comments