Scary Movie 2000 x264 720p Esub BluRay Dual Audio English Hindi THE GOPI SAHI

Scary Movie (2000)

R 07/07/2000 (US) Comedy 1h 28m

No mercy. No shame. No sequel.

Overview

A familiar-looking group of teenagers find themselves being stalked by a more-than-vaguely recognizable masked killer! As the victims begin to pile up and the laughs pile on, none of your favorite scary movies escape the razor-sharp satire of this outrageously funny parody!

Directed byKeenen Ivory Wayans
Produced by
  • Eric L. Gold
  • Lee R. Mayes
Written by
Starring
Music byDavid Kitay
CinematographyFrancis Kenny
Edited byMark Helfrich
Production
companies
  • Wayans Bros. Entertainment[1]
  • Gold/Miller Productions[1]
  • Brad Grey Pictures[1]
Distributed byDimension Films[1]
Release date
  • July 7, 2000
Running time
88 minutes[2]
CountryUnited States
LanguageEnglish
Budget$19 million[3]
Box office$278 million[3]



Scary Movie 2000 x264 720p Esub BluRay Dual Audio English Hindi THE GOPI SAHI


Format                         : Matroska

Format version                 : Version 4

File size                      : 695 MiB

Duration                       : 1 h 28 min

Overall bit rate               : 1 100 kb/s

Movie name                     : Scary Movie 2000 GOPI SAHI

Encoded date                   : UTC 2021-01-17 13:46:54


Video

ID                             : 1

Format                         : AVC

Format/Info                    : Advanced Video Codec

Format profile                 : [email protected]

Format settings                : CABAC / 5 Ref Frames

Format settings, CABAC         : Yes

Format settings, Reference fra : 5 frames

Codec ID                       : V_MPEG4/ISO/AVC

Duration                       : 1 h 28 min

Bit rate                       : 899 kb/s

Width                          : 1 280 pixels

Height                         : 534 pixels

Display aspect ratio           : 2.40:1

Frame rate mode                : Constant

Frame rate                     : 23.976 (24000/1001) FPS

Color space                    : YUV

Chroma subsampling             : 4:2:0

Bit depth                      : 8 bits

Scan type                      : Progressive

Bits/(Pixel*Frame)             : 0.055

Stream size                    : 568 MiB (82%)

Title                          : GOPI SAHI

Writing library                : x264 core 157 r2935 545de2


Audio #1

ID                             : 2

Format                         : AAC LC

Format/Info                    : Advanced Audio Codec Low Complexity

Codec ID                       : A_AAC-2

Duration                       : 1 h 28 min

Bit rate                       : 96.0 kb/s

Channel(s)                     : 2 channels

Channel layout                 : L R

Sampling rate                  : 48.0 kHz

Frame rate                     : 46.875 FPS (1024 SPF)

Compression mode               : Lossy

Delay relative to video        : 79 ms

Stream size                    : 60.9 MiB (9%)

Title                          : GOPI SAHI

Language                       : Hindi

Default                        : Yes

Forced                         : No


Audio #2

ID                             : 3

Format                         : AAC LC

Format/Info                    : Advanced Audio Codec Low Complexity

Codec ID                       : A_AAC-2

Duration                       : 1 h 28 min

Bit rate                       : 96.0 kb/s

Channel(s)                     : 2 channels

Channel layout                 : L R

Sampling rate                  : 48.0 kHz

Frame rate                     : 46.875 FPS (1024 SPF)

Compression mode               : Lossy

Delay relative to video        : -21 ms

Stream size                    : 60.9 MiB (9%)

Title                          : GOPI SAHI

Language                       : English

Default                        : No

Forced                         : No


Text

ID                             : 4

Format                         : VobSub

Muxing mode                    : zlib

Codec ID                       : S_VOBSUB

Codec ID/Info                  : Picture based subtitle format used on DVDs

Duration                       : 1 h 20 min

Bit rate                       : 9 542 b/s

Count of elements              : 2500

Stream size                    : 5.49 MiB (1%)

Title                          : GOPI SAHI

Language                       : English

Default                        : No

Forced                         : No




MAGNET


TORRENT


TORRENT 2 480P AND 720P CHOOSE WHICH ONE DWONLOAD


GDRIVE FILE COPY


DWONLOAD AUTO START IN 20 SEC 


DOWNLOAD AND ONLINE TERABOX LINK = PASSWORD = ps69


4 MOVIE SCARY 2.70 GB DWONLOAD AUTO START IN 20 SEC ZIP FILE


MEDIAFIRE


DWNLOAD AND ONLINE


ONLINE 720P

 

 

Post a Comment

0 Comments