Scary Movie 3 2003 x264 720p Esub BluRay Dual Audio English Hindi THE GOPI SAHI

Scary Movie 3 (2003)

R 10/24/2003 (US) Comedy 1h 24m

Great trilogies come in threes.

Overview

In the third installment of the Scary Movie franchise, news anchorwoman Cindy Campbell has to investigate mysterious crop circles and killing video tapes, and help the President stop an alien invasion in the process.

Directed byDavid Zucker
Produced byRobert K. Weiss
Written by
Based onCharacters
by Shawn Wayans
Marlon Wayans
Buddy Johnson
Phil Beauman
Jason Friedberg
Aaron Seltzer
Starring
Music byJames L. Venable
CinematographyMark Irwin
Edited byJon Poll
Production
company
Brad Grey Pictures[1]
Distributed byDimension Films[1]
Release date
  • October 20, 2003 (Los Angeles premiere)
  • October 24, 2003
Running time
84 minutes[2]
CountryUnited States[1]
LanguageEnglish
Budget$48 million[3]
Box office$220.7 million[3]


Scary Movie 3 2003 x264 720p Esub BluRay Dual Audio English Hindi THE GOPI SAHI


Format                         : Matroska

Format version                 : Version 4

File size                      : 675 MiB

Duration                       : 1 h 25 min

Overall bit rate               : 1 101 kb/s

Movie name                     : Scary Movie 3 2003 GOPI SAHI

Encoded date                   : UTC 2021-01-21 08:54:36


Video

ID                             : 1

Format                         : AVC

Format/Info                    : Advanced Video Codec

Format profile                 : [email protected]

Format settings                : CABAC / 5 Ref Frames

Format settings, CABAC         : Yes

Format settings, Reference fra : 5 frames

Codec ID                       : V_MPEG4/ISO/AVC

Duration                       : 1 h 25 min

Bit rate                       : 899 kb/s

Width                          : 1 280 pixels

Height                         : 720 pixels

Display aspect ratio           : 16:9

Frame rate mode                : Constant

Frame rate                     : 23.976 (24000/1001) FPS

Color space                    : YUV

Chroma subsampling             : 4:2:0

Bit depth                      : 8 bits

Scan type                      : Progressive

Bits/(Pixel*Frame)             : 0.041

Stream size                    : 550 MiB (82%)

Title                          : GOPI SAHI

Writing library                : x264 core 157 r2935 545de2f


Audio #1

ID                             : 2

Format                         : AAC LC

Format/Info                    : Advanced Audio Codec Low Complexity

Codec ID                       : A_AAC-2

Duration                       : 1 h 25 min

Bit rate                       : 96.0 kb/s

Channel(s)                     : 2 channels

Channel layout                 : L R

Sampling rate                  : 48.0 kHz

Frame rate                     : 46.875 FPS (1024 SPF)

Compression mode               : Lossy

Delay relative to video        : 3 ms

Stream size                    : 59.0 MiB (9%)

Title                          : GOPI SAHI

Language                       : Hindi

Default                        : Yes

Forced                         : No


Audio #2

ID                             : 3

Format                         : AAC LC

Format/Info                    : Advanced Audio Codec Low Complexity

Codec ID                       : A_AAC-2

Duration                       : 1 h 25 min

Bit rate                       : 96.0 kb/s

Channel(s)                     : 2 channels

Channel layout                 : L R

Sampling rate                  : 48.0 kHz

Frame rate                     : 46.875 FPS (1024 SPF)

Compression mode               : Lossy

Delay relative to video        : -21 ms

Stream size                    : 59.2 MiB (9%)

Title                          : GOPI SAHI

Language                       : English

Default                        : No

Forced                         : No


Text

ID                             : 4

Format                         : VobSub

Muxing mode                    : zlib

Codec ID                       : S_VOBSUB

Codec ID/Info                  : Picture based subtitle format used on DVDs

Duration                       : 1 h 16 min

Bit rate                       : 12.5 kb/s

Count of elements              : 2258

Stream size                    : 6.79 MiB (1%)

Title                          : GOPI SAHI

Language                       : English

Default                        : No

Forced                         : No




MAGNET


TORRENT


TORRENT 2 480P AND 720P CHOOSE WHICH ONE DWONLOAD


GDRIVE FILE COPY


DWONLOAD AUTO START IN 20 SEC 

 

DOWNLOAD AND ONLINE TERABOX LINK = PASSWORD = jgbb


4 MOVIE SCARY 2.70 GB DWONLOAD AUTO START IN 20 SEC ZIP FILE

 

MEDIAFIRE


DWNLOAD AND ONLINE


ONLINE 720P

 

Post a Comment

0 Comments