Seed of Chucky 2004 Unrated x264 720p Esub BluRay Dual Audio English Hindi THE GOPI SAHI

Seed of Chucky (2004)

R 11/11/2004 (US) Horror 1h 27m

Fear The Second Coming

Overview

Chucky and Tiffany are resurrected by their innocent son, Glen, and hit Hollywood, where a movie depicting the killer dolls' murder spree is underway.

 

Directed byDon Mancini
Produced by
Written byDon Mancini
Based onCharacters
by Don Mancini
Starring
Music byPino Donaggio
CinematographyVernon Layton
Edited byChris Dickens
Production
companies
La Sienega Productions
David Kirschner Productions[1]
Distributed byRogue Pictures
Release date
  • November 11, 2004
Running time
86 minutes (R-rated version) 87 minutes (unrated version)
CountryUnited States
LanguageEnglish
Budget$12 million[2]
Box office$24.8 million


Seed of Chucky 2004 Unrated x264 720p Esub BluRay Dual Audio English Hindi THE GOPI SAHI


Format                         : Matroska

Format version                 : Version 4

File size                      : 811 MiB

Duration                       : 1 h 27 min

Overall bit rate               : 1 299 kb/s

Movie name                     : Seed of Chucky 2004 Unrated GOPI SAHI

Encoded date                   : UTC 2021-06-17 01:17:34


Video

ID                             : 1

Format                         : AVC

Format/Info                    : Advanced Video Codec

Format profile                 : [email protected]

Format settings                : CABAC / 5 Ref Frames

Format settings, CABAC         : Yes

Format settings, Reference fra : 5 frames

Codec ID                       : V_MPEG4/ISO/AVC

Duration                       : 1 h 27 min

Bit rate                       : 899 kb/s

Width                          : 1 280 pixels

Height                         : 690 pixels

Display aspect ratio           : 1.85:1

Frame rate mode                : Constant

Frame rate                     : 23.976 (24000/1001) FPS

Color space                    : YUV

Chroma subsampling             : 4:2:0

Bit depth                      : 8 bits

Scan type                      : Progressive

Bits/(Pixel*Frame)             : 0.042

Stream size                    : 561 MiB (69%)

Title                          : GOPI SAHI

Writing library                : x264 core 157 r2935 545de2f


Audio #1

ID                             : 2

Format                         : AAC LC

Format/Info                    : Advanced Audio Codec Low Complexity

Codec ID                       : A_AAC-2

Duration                       : 1 h 27 min

Bit rate                       : 192 kb/s

Channel(s)                     : 6 channels

Channel layout                 : C L R Ls Rs LFE

Sampling rate                  : 48.0 kHz

Frame rate                     : 46.875 FPS (1024 SPF)

Compression mode               : Lossy

Delay relative to video        : -21 ms

Stream size                    : 120 MiB (15%)

Title                          : GOPI SAHI

Language                       : Hindi

Default                        : Yes

Forced                         : No


Audio #2

ID                             : 3

Format                         : AAC LC

Format/Info                    : Advanced Audio Codec Low Complexity

Codec ID                       : A_AAC-2

Duration                       : 1 h 27 min

Bit rate                       : 192 kb/s

Channel(s)                     : 6 channels

Channel layout                 : C L R Ls Rs LFE

Sampling rate                  : 48.0 kHz

Frame rate                     : 46.875 FPS (1024 SPF)

Compression mode               : Lossy

Delay relative to video        : -21 ms

Stream size                    : 120 MiB (15%)

Title                          : GOPI SAHI

Language                       : English

Default                        : No

Forced                         : No


Text

ID                             : 4

Format                         : PGS

Muxing mode                    : zlib

Codec ID                       : S_HDMV/PGS

Codec ID/Info                  : Picture based subtitle format used on BDs/HD-DVDs

Duration                       : 1 h 24 min

Bit rate                       : 40.3 kb/s

Count of elements              : 2965

Stream size                    : 24.5 MiB (3%)

Title                          : GOPI SAHI

Language                       : English

Default                        : Yes

Forced                         : Yes


Menu

00:00:00.000                   : :Unwanted Present (Main Titles)

00:03:15.737                   : :Incessant Nightmares

00:07:22.359                   : :Puppet on a String

00:09:13.470                   : :Winter Wonderland

00:14:16.481                   : :Killer Instincts

00:16:52.678                   : :Playing Up

00:19:03.768                   : :Dysfunctional Family

00:25:12.803                   : :kissy Face

00:27:41.827                   : :Horrific Press

00:31:44.111                   : :No More Killing

00:33:51.238                   : :Helping Hand

00:36:22.305                   : :Dirty Girl

00:42:32.592                   : :Say Cheese!

00:48:20.064                   : :The Last Supper

00:54:17.838                   : :Proud Parents

01:00:01.890                   : :Lady Killer

01:05:43.940                   : :Voodoo Pregnancy

01:11:02.759                   : :Untying The Knot

01:17:06.413                   : :A New Gift

01:21:23.295                   : :Curtain Call / End Title





MAGNET


TORRENT


TORRENT 2 480P AND 720P CHOOSE WHICH ONE DWONLOAD


GDRIVE FILE COPY


DWONLOAD AUTO START IN 20 SEC 


DOWNLOAD AND ONLINE TERABOX LINK = PASSWORD = v5qn


DWONLOAD AUTO START IN 20 SEC ZIP FILE


MEDIAFIRE


RU


DWNLOAD AND ONLINE


ONLINE 720P


Post a Comment

0 Comments