Spider-Man 2 2004 x264 720p Esub BluRay Dual Audio English Hindi THE GOPI SAHI

 

Spider-Man 2 (2004)

U 07/23/2004 (IN) ActionAdventureFantasy 2h 7m 

There's a hero in all of us.

Overview

Peter Parker is going through a major identity crisis. Burned out from being Spider-Man, he decides to shelve his superhero alter ego, which leaves the city suffering in the wake of carnage left by the evil Doc Ock. In the meantime, Parker still can't act on his feelings for Mary Jane Watson, a girl he's loved since childhood.

Directed bySam Raimi
Produced by
Screenplay byAlvin Sargent
Story by
Based on
Starring
Music byDanny Elfman
CinematographyBill Pope
Edited byBob Murawski
Production
companies
Distributed bySony Pictures Releasing[2]
Release date
Running time
127 minutes[3]
CountryUnited States
LanguageEnglish
Budget$200 million[4]
Box office$789 million[4]

 


Spider-Man 2 2004 x264 720p Esub BluRay Dual Audio English Hindi THE GOPI SAHI


Format                         : Matroska
Format version                 : Version 4
File size                      : 1.05 GiB
Duration                       : 2 h 15 min
Overall bit rate               : 1 104 kb/s
Movie name                     : Spider-Man 2 2004 GOPI SAHI
Encoded date                   : UTC 2020-06-24 15:29:37

Video
ID                             : 1
Format                         : AVC
Format/Info                    : Advanced Video Codec
Format profile                 : [email protected]
Format settings                : CABAC / 5 Ref Frames
Format settings, CABAC         : Yes
Format settings, Reference fra : 5 frames
Codec ID                       : V_MPEG4/ISO/AVC
Duration                       : 2 h 15 min
Bit rate                       : 899 kb/s
Width                          : 1 280 pixels
Height                         : 534 pixels
Display aspect ratio           : 2.40:1
Frame rate mode                : Constant
Frame rate                     : 23.976 (24000/1001) FPS
Color space                    : YUV
Chroma subsampling             : 4:2:0
Bit depth                      : 8 bits
Scan type                      : Progressive
Bits/(Pixel*Frame)             : 0.055
Stream size                    : 873 MiB (81%)
Title                          : GOPI SAHI
Writing library                : x264 core 157 r2935 545de2f

Audio #1
ID                             : 2
Format                         : AAC LC
Format/Info                    : Advanced Audio Codec Low Complexity
Codec ID                       : A_AAC-2
Duration                       : 2 h 15 min
Bit rate                       : 96.0 kb/s
Channel(s)                     : 2 channels
Channel layout                 : L R
Sampling rate                  : 48.0 kHz
Frame rate                     : 46.875 FPS (1024 SPF)
Compression mode               : Lossy
Delay relative to video        : -21 ms
Stream size                    : 93.7 MiB (9%)
Title                          : GOPI SAHI
Language                       : Hindi
Default                        : Yes
Forced                         : No

Audio #2
ID                             : 3
Format                         : AAC LC
Format/Info                    : Advanced Audio Codec Low Complexity
Codec ID                       : A_AAC-2
Duration                       : 2 h 15 min
Bit rate                       : 96.0 kb/s
Channel(s)                     : 2 channels
Channel layout                 : L R
Sampling rate                  : 48.0 kHz
Frame rate                     : 46.875 FPS (1024 SPF)
Compression mode               : Lossy
Delay relative to video        : -21 ms
Stream size                    : 93.7 MiB (9%)
Title                          : GOPI SAHI
Language                       : English
Default                        : No
Forced                         : No

Text
ID                             : 4
Format                         : PGS
Muxing mode                    : zlib
Codec ID                       : S_HDMV/PGS
Codec ID/Info                  : Picture based subtitle format used on BDs/HD-DVDs
Duration                       : 2 h 7 min
Bit rate                       : 23.0 kb/s
Count of elements              : 2398
Stream size                    : 20.9 MiB (2%)
Title                          : GOPI SAHI
Language                       : English
Default                        : Yes
Forced                         : Yes

Menu
00:00:00.000                   : :Chapter 1
00:03:27.457                   : :Chapter 2
00:08:13.535                   : :Chapter 3
00:09:41.456                   : :Chapter 4
00:10:54.946                   : :Chapter 5
00:16:10.845                   : :Chapter 6
00:19:24.664                   : :Chapter 7
00:21:19.737                   : :Chapter 8
00:25:05.629                   : :Chapter 9
00:25:43.834                   : :Chapter 10
00:27:16.969                   : :Chapter 11
00:29:17.798                   : :Chapter 12
00:31:39.648                   : :Chapter 13
00:32:47.132                   : :Chapter 14
00:35:20.994                   : :Chapter 15
00:37:27.120                   : :Chapter 16
00:44:07.770                   : :Chapter 17
00:46:11.143                   : :Chapter 18
00:47:29.680                   : :Chapter 19
00:49:01.272                   : :Chapter 20
00:51:17.616                   : :Chapter 21
00:54:21.800                   : :Chapter 22
00:57:42.376                   : :Chapter 23
01:02:44.344                   : :Chapter 24
01:04:15.935                   : :Chapter 25
01:06:08.339                   : :Chapter 26
01:08:26.269                   : :Chapter 27
01:10:49.704                   : :Chapter 28
01:12:33.641                   : :Chapter 29
01:15:23.436                   : :Chapter 30
01:17:11.335                   : :Chapter 31
01:21:21.835                   : :Chapter 32
01:24:15.717                   : :Chapter 33
01:26:49.621                   : :Chapter 34
01:28:59.334                   : :Chapter 35
01:32:49.147                   : :Chapter 36
01:34:22.824                   : :Chapter 37
01:35:44.656                   : :Chapter 38
01:38:13.596                   : :Chapter 39
01:40:40.368                   : :Chapter 40
01:41:46.517                   : :Chapter 41
01:42:44.283                   : :Chapter 42
01:45:32.910                   : :Chapter 43
01:48:16.448                   : :Chapter 44
01:50:58.694                   : :Chapter 45
01:53:12.995                   : :Chapter 46
01:56:23.643                   : :Chapter 47
02:01:27.614                   : :Chapter 48
02:03:50.548                   : :Chapter 49
02:06:17.445                   : :Chapter 50
02:10:14.473                   : :Chapter 51
02:11:03.814                   : :Chapter 52




 MAGNET

TORRENT


TORRENT 2 480P AND 720P CHOOSE WHICH ONE DWONLOAD

GDRIVE FILE COPY

DWONLOAD AUTO START IN 20 SEC

DOWNLOAD AND ONLINE TERABOX LINK
= PASSWORD = z39b

SIZE 3GB 3 MOVIE SPIDER MAN DWONLOAD AUTO START IN 20 SEC ZIP FILE

725 MB HINDI 480P DWONLOAD AUTO START IN 20 SEC

MEDIAFIRE

DWNLOAD AND ONLINE


ONLINE 720P

 

Post a Comment

0 Comments