Spider-Man 3 2007 x264 720p Esub BluRay Dual Audio English Hindi THE GOPI SAHI

Spider-Man 3 (2007)

PG-13 05/03/2007 (US) FantasyActionAdventure 2h 19m 
 

The battle within.

Overview

The seemingly invincible Spider-Man goes up against an all-new crop of villains—including the shape-shifting Sandman. While Spider-Man’s superpowers are altered by an alien organism, his alter ego, Peter Parker, deals with nemesis Eddie Brock and also gets caught up in a love triangle.

 

Directed bySam Raimi
Produced by
Screenplay by
Story by
  • Sam Raimi
  • Ivan Raimi
Based on
Starring
Music byChristopher Young
CinematographyBill Pope
Edited byBob Murawski
Production
companies
Distributed bySony Pictures Releasing[1]
Release date
Running time
138 minutes[3]
CountryUnited States
LanguageEnglish
Budget$258–350 million[4][5][6]
Box office$894.9 million[7]



Spider-Man 3 2007 x264 720p Esub BluRay Dual Audio English Hindi THE GOPI SAHI


Format                         : Matroska
Format version                 : Version 4
File size                      : 1.08 GiB
Duration                       : 2 h 19 min
Overall bit rate               : 1 112 kb/s
Movie name                     : Spider-Man 3 2007 GOPI SAHI
Encoded date                   : UTC 2020-06-24 23:34:27
Writing application            : mkvmerge v46.0.0 ('No Deeper Escape') 32-bit
Writing library                : libebml v1.3.10 + libmatroska v1.5.2

Video
ID                             : 1
Format                         : AVC
Format/Info                    : Advanced Video Codec
Format profile                 : [email protected]
Format settings                : CABAC / 5 Ref Frames
Format settings, CABAC         : Yes
Format settings, Reference fra : 5 frames
Codec ID                       : V_MPEG4/ISO/AVC
Duration                       : 2 h 19 min
Bit rate                       : 899 kb/s
Width                          : 1 280 pixels
Height                         : 534 pixels
Display aspect ratio           : 2.40:1
Frame rate mode                : Constant
Frame rate                     : 23.976 (24000/1001) FPS
Color space                    : YUV
Chroma subsampling             : 4:2:0
Bit depth                      : 8 bits
Scan type                      : Progressive
Bits/(Pixel*Frame)             : 0.055
Stream size                    : 895 MiB (81%)
Title                          : GOPI SAHI
Writing library                : x264 core 157 r2935 545de2f

Audio #1
ID                             : 2
Format                         : AAC LC
Format/Info                    : Advanced Audio Codec Low Complexity
Codec ID                       : A_AAC-2
Duration                       : 2 h 19 min
Bit rate                       : 96.0 kb/s
Channel(s)                     : 2 channels
Channel layout                 : L R
Sampling rate                  : 48.0 kHz
Frame rate                     : 46.875 FPS (1024 SPF)
Compression mode               : Lossy
Delay relative to video        : -21 ms
Stream size                    : 96.0 MiB (9%)
Title                          : GOPI SAHI
Language                       : Hindi
Default                        : Yes
Forced                         : No

Audio #2
ID                             : 3
Format                         : AAC LC
Format/Info                    : Advanced Audio Codec Low Complexity
Codec ID                       : A_AAC-2
Duration                       : 2 h 19 min
Bit rate                       : 96.0 kb/s
Channel(s)                     : 2 channels
Channel layout                 : L R
Sampling rate                  : 48.0 kHz
Frame rate                     : 46.875 FPS (1024 SPF)
Compression mode               : Lossy
Delay relative to video        : -21 ms
Stream size                    : 96.1 MiB (9%)
Title                          : GOPI SAHI
Language                       : English
Default                        : No
Forced                         : No

Text #1
ID                             : 4
Format                         : PGS
Muxing mode                    : zlib
Codec ID                       : S_HDMV/PGS
Codec ID/Info                  : Picture based subtitle format used on BDs/HD-DVDs
Duration                       : 2 h 8 min
Bit rate                       : 21.4 kb/s
Count of elements              : 2268
Stream size                    : 19.7 MiB (2%)
Title                          : GOPI SAHI
Language                       : English
Default                        : Yes
Forced                         : Yes

Text #2
ID                             : 5
Format                         : PGS
Muxing mode                    : zlib
Codec ID                       : S_HDMV/PGS
Codec ID/Info                  : Picture based subtitle format used on BDs/HD-DVDs
Duration                       : 2 h 8 min
Bit rate                       : 20.0 kb/s
Count of elements              : 2326
Stream size                    : 18.4 MiB (2%)
Title                          : GOPI SAHI
Language                       : Hindi
Default                        : No
Forced                         : No

Menu #1
00:00:00.000                   : :Chapter 1
00:07:59.980                   : :Chapter 2
00:16:55.056                   : :Chapter 3
00:24:45.109                   : :Chapter 4
00:30:12.728                   : :Chapter 5
00:40:08.656                   : :Chapter 6
00:49:24.628                   : :Chapter 7
00:59:27.814                   : :Chapter 8
01:06:34.699                   : :Chapter 9
01:15:23.561                   : :Chapter 10
01:22:16.849                   : :Chapter 11
01:30:17.996                   : :Chapter 12
01:40:46.374                   : :Chapter 13
01:49:10.836                   : :Chapter 14
01:59:57.148                   : :Chapter 15
02:06:11.481                   : :Chapter 16

Menu #2
00:00:00.000                   : :Chapter 1
00:07:59.812                   : :Chapter 2
00:16:55.055                   : :Chapter 3
00:24:44.983                   : :Chapter 4
00:30:12.685                   : :Chapter 5
00:40:08.531                   : :Chapter 6
00:49:24.586                   : :Chapter 7
00:59:27.772                   : :Chapter 8
01:06:34.573                   : :Chapter 9
01:15:23.435                   : :Chapter 10
01:22:16.723                   : :Chapter 11
01:30:17.829                   : :Chapter 12
01:40:46.373                   : :Chapter 13
01:49:10.835                   : :Chapter 14
01:59:57.148                   : :Chapter 15
02:06:11.355                   : :Chapter 16




 MAGNET

TORRENT

TORRENT 2 480P AND 720P CHOOSE WHICH ONE DWONLOAD

GDRIVE FILE COPY

DWONLOAD AUTO START IN 20 SEC

DOWNLOAD AND ONLINE TERABOX LINK = PASSWORD = xhq9


SIZE 3GB 3 MOVIE SPIDER MAN DWONLOAD AUTO START IN 20 SEC ZIP FILE

792 MB HINDI 480P DWONLOAD AUTO START IN 20 SEC

MEDIAFIRE

DWNLOAD AND ONLINE

ONLINE 720P