Spiderman 1 2002 x264 720p Esub BluRay Dual Audio English Hindi THE GOPI SAHI

 

Spider-Man (2002)

U 05/24/2002 (IN) FantasyAction 2h 1m 

Go for the ultimate spin.

Overview

After being bitten by a genetically altered spider, nerdy high school student Peter Parker is endowed with amazing powers to become the Amazing superhero known as Spider-Man.

 

Directed bySam Raimi
Produced by
Screenplay byDavid Koepp
Based on
Starring
Music byDanny Elfman
CinematographyDon Burgess
Edited by
Production
companies
Distributed bySony Pictures Releasing[1]
Release date
Running time
121 minutes[3]
CountryUnited States
LanguageEnglish
Budget$139 million[4]
Box office$825 million[5]

 


Spiderman 1 2002 x264 720p Esub BluRay Dual Audio English Hindi THE GOPI SAHI

Format                         : Matroska
Format version                 : Version 4
File size                      : 968 MiB
Duration                       : 2 h 1 min
Overall bit rate               : 1 117 kb/s
Movie name                     : Spiderman 2002 GOPI SAHI
Encoded date                   : UTC 2020-06-24 23:36:04

Video
ID                             : 1
Format                         : AVC
Format/Info                    : Advanced Video Codec
Format profile                 : [email protected]
Format settings                : CABAC / 5 Ref Frames
Format settings, CABAC         : Yes
Format settings, Reference fra : 5 frames
Codec ID                       : V_MPEG4/ISO/AVC
Duration                       : 2 h 1 min
Bit rate                       : 899 kb/s
Width                          : 1 280 pixels
Height                         : 690 pixels
Display aspect ratio           : 1.85:1
Frame rate mode                : Constant
Frame rate                     : 23.976 (24000/1001) FPS
Color space                    : YUV
Chroma subsampling             : 4:2:0
Bit depth                      : 8 bits
Scan type                      : Progressive
Bits/(Pixel*Frame)             : 0.042
Stream size                    : 779 MiB (80%)
Title                          : GOPI SAHI
Writing library                : x264 core 157 r2935 545de2f

Audio #1
ID                             : 2
Format                         : AAC LC
Format/Info                    : Advanced Audio Codec Low Complexity
Codec ID                       : A_AAC-2
Duration                       : 2 h 1 min
Bit rate                       : 96.0 kb/s
Channel(s)                     : 2 channels
Channel layout                 : L R
Sampling rate                  : 48.0 kHz
Frame rate                     : 46.875 FPS (1024 SPF)
Compression mode               : Lossy
Delay relative to video        : -21 ms
Stream size                    : 83.6 MiB (9%)
Title                          : GOPI SAHI
Language                       : Hindi
Default                        : Yes
Forced                         : No

Audio #2
ID                             : 3
Format                         : AAC LC
Format/Info                    : Advanced Audio Codec Low Complexity
Codec ID                       : A_AAC-2
Duration                       : 2 h 1 min
Bit rate                       : 96.0 kb/s
Channel(s)                     : 2 channels
Channel layout                 : L R
Sampling rate                  : 48.0 kHz
Frame rate                     : 46.875 FPS (1024 SPF)
Compression mode               : Lossy
Delay relative to video        : -21 ms
Stream size                    : 83.6 MiB (9%)
Title                          : GOPI SAHI
Language                       : English
Default                        : No
Forced                         : No

Text #1
ID                             : 4
Format                         : PGS
Muxing mode                    : zlib
Codec ID                       : S_HDMV/PGS
Codec ID/Info                  : Picture based subtitle format used on BDs/HD-DVDs
Duration                       : 1 h 52 min
Bit rate                       : 28.0 kb/s
Count of elements              : 2403
Stream size                    : 22.5 MiB (2%)
Title                          : GOPI SAHI
Language                       : English
Default                        : Yes
Forced                         : Yes

Text #2
ID                             : 5
Format                         : PGS
Muxing mode                    : zlib
Codec ID                       : S_HDMV/PGS
Codec ID/Info                  : Picture based subtitle format used on BDs/HD-DVDs
Duration                       : 1 h 52 min
Bit rate                       : 26.4 kb/s
Count of elements              : 2397
Stream size                    : 21.2 MiB (2%)
Title                          : GOPI SAHI
Language                       : Hindi
Default                        : No
Forced                         : No

Menu
00:00:00.000                   : :00:00:00.000
00:06:29.472                   : :00:06:29.472
00:09:23.021                   : :00:09:22.896
00:14:56.187                   : :00:14:56.187
00:17:50.695                   : :00:17:50.653
00:21:53.604                   : :00:21:53.604
00:23:28.782                   : :00:23:28.616
00:25:18.767                   : :00:25:18.767
00:34:35.115                   : :00:34:35.115
00:40:22.170                   : :00:40:22.170
00:41:44.168                   : :00:41:44.127
00:43:13.883                   : :00:43:13.883
00:44:40.011                   : :00:44:40.011
00:54:32.978                   : :00:54:32.978
00:55:52.599                   : :00:55:52.558
01:00:48.937                   : :01:00:48.937
01:04:20.940                   : :01:04:20.774
01:05:57.036                   : :01:05:57.036
01:12:12.620                   : :01:12:12.370
01:14:18.955                   : :01:14:18.871
01:15:48.669                   : :01:15:48.669
01:19:35.604                   : :01:19:35.521
01:22:06.547                   : :01:22:06.463
01:25:13.692                   : :01:25:13.608
01:30:39.225                   : :01:30:39.225
01:39:37.013                   : :01:39:36.679
01:45:08.385                   : :01:45:08.385
01:50:27.871                   : :01:50:27.830




 MAGNET

TORRENT

TORRENT 2 480P AND 720P CHOOSE WHICH ONE DWONLOAD


GDRIVE FILE COPY

DWONLOAD AUTO START IN 20 SEC

DOWNLOAD AND ONLINE TERABOX LINK = PASSWORD = ke6p

SIZE 3GB 3 MOVIE SPIDER MAN DWONLOAD AUTO START IN 20 SEC ZIP FILE


694 MB HINDI 480P DWONLOAD AUTO START IN 20 SEC

MEDIAFIRE


DWNLOAD AND ONLINE

ONLINE 720P