Splice 2009 UNRATED x264 720p Esub BluRay Dual Audio English Hindi THE GOPI SAHI

Splice (2009)

R 10/06/2009 (US) HorrorThrillerScience Fiction 1h 44m 
 

Science's newest miracle...is a mistake.

Overview

Elsa and Clive, two young rebellious scientists, defy legal and ethical boundaries and forge ahead with a dangerous experiment: splicing together human and animal DNA to create a new organism. Named "Dren", the creature rapidly develops from a deformed female infant into a beautiful but dangerous winged human-chimera, who forges a bond with both of her creators - only to have that bond turn deadly.

 

Directed byVincenzo Natali
Produced bySteve Hoban
Screenplay by
Story by
  • Vincenzo Natali
  • Antoinette Terry Bryant
Starring
Music byCyrille Aufort
CinematographyTetsuo Nagata
Edited byMichele Conroy
Production
companies
Distributed by
Release date
Running time
104 minutes
Countries
LanguageEnglish
Budget$30 million[3]
Box office$27.1 million[3]

 


Splice 2009 UNRATED x264 720p Esub BluRay Dual Audio English Hindi THE GOPI SAHI


Format                         : Matroska
Format version                 : Version 4
File size                      : 840 MiB
Duration                       : 1 h 47 min
Overall bit rate               : 1 094 kb/s
Movie name                     : Splice 2009 UNRATED GOPI SAHI
Encoded date                   : UTC 2020-12-10 12:12:13

Video
ID                             : 1
Format                         : AVC
Format/Info                    : Advanced Video Codec
Format profile                 : [email protected]
Format settings                : CABAC / 5 Ref Frames
Format settings, CABAC         : Yes
Format settings, Reference fra : 5 frames
Codec ID                       : V_MPEG4/ISO/AVC
Duration                       : 1 h 47 min
Bit rate                       : 899 kb/s
Width                          : 1 280 pixels
Height                         : 688 pixels
Display aspect ratio           : 1.85:1
Frame rate mode                : Constant
Frame rate                     : 24.000 FPS
Color space                    : YUV
Chroma subsampling             : 4:2:0
Bit depth                      : 8 bits
Scan type                      : Progressive
Bits/(Pixel*Frame)             : 0.043
Stream size                    : 690 MiB (82%)
Title                          : GOPI SAHI
Writing library                : x264 core 157 r2935 545de2


Audio #1
ID                             : 2
Format                         : AAC LC
Format/Info                    : Advanced Audio Codec Low Complexity
Codec ID                       : A_AAC-2
Duration                       : 1 h 47 min
Bit rate                       : 96.0 kb/s
Channel(s)                     : 2 channels
Channel layout                 : L R
Sampling rate                  : 44.1 kHz
Frame rate                     : 43.066 FPS (1024 SPF)
Compression mode               : Lossy
Delay relative to video        : -23 ms
Stream size                    : 73.9 MiB (9%)
Title                          : GOPI SAHI
Language                       : Hindi
Default                        : Yes
Forced                         : No

Audio #2
ID                             : 3
Format                         : AAC LC
Format/Info                    : Advanced Audio Codec Low Complexity
Codec ID                       : A_AAC-2
Duration                       : 1 h 47 min
Bit rate                       : 96.0 kb/s
Channel(s)                     : 2 channels
Channel layout                 : L R
Sampling rate                  : 48.0 kHz
Frame rate                     : 46.875 FPS (1024 SPF)
Compression mode               : Lossy
Stream size                    : 74.1 MiB (9%)
Title                          : GOPI SAHI
Language                       : English
Default                        : No
Forced                         : No