The Amazing Spider-Man 2 2014 x264 720p Esub BluRay Dual Audio English Hindi THE GOPI SAHI

The Amazing Spider-Man 2 (2014)

PG-13 05/02/2014 (US) ActionAdventureFantasy 2h 22m 

No more secrets.

Overview

For Peter Parker, life is busy. Between taking out the bad guys as Spider-Man and spending time with the person he loves, Gwen Stacy, high school graduation cannot come quickly enough. Peter has not forgotten about the promise he made to Gwen’s father to protect her by staying away, but that is a promise he cannot keep. Things will change for Peter when a new villain, Electro, emerges, an old friend, Harry Osborn, returns, and Peter uncovers new clues about his past.

 

Directed byMarc Webb
Produced by
Screenplay by
Story by
Based on
Starring
Music by
CinematographyDan Mindel
Edited byPietro Scalia
Production
companies
Distributed bySony Pictures Releasing
Release date
  • April 18, 2014 (Mexico)[1]
  • May 2, 2014 (United States)
Running time
141 minutes[2]
CountryUnited States
LanguageEnglish
Budget$200–293 million[3][4]
Box office$709 million[5]


 

 The Amazing Spider-Man 2 2014 x264 720p Esub BluRay Dual Audio English Hindi THE GOPI SAHI

Format                         : Matroska
Format version                 : Version 4
File size                      : 1.11 GiB
Duration                       : 2 h 21 min
Overall bit rate               : 1 119 kb/s
Movie name                     : The Amazing Spider-Man 2 2014 GOPI SAHI
Encoded date                   : UTC 2020-06-25 09:14:06

Video
ID                             : 1
Format                         : AVC
Format/Info                    : Advanced Video Codec
Format profile                 : [email protected]
Format settings                : CABAC / 5 Ref Frames
Format settings, CABAC         : Yes
Format settings, Reference fra : 5 frames
Codec ID                       : V_MPEG4/ISO/AVC
Duration                       : 2 h 21 min
Bit rate                       : 899 kb/s
Width                          : 1 280 pixels
Height                         : 534 pixels
Display aspect ratio           : 2.40:1
Frame rate mode                : Constant
Frame rate                     : 23.976 (24000/1001) FPS
Color space                    : YUV
Chroma subsampling             : 4:2:0
Bit depth                      : 8 bits
Scan type                      : Progressive
Bits/(Pixel*Frame)             : 0.055
Stream size                    : 910 MiB (80%)
Title                          : GOPI SAHI
Writing library                : x264 core 157 r2935 545de2f

Audio #1
ID                             : 2
Format                         : AAC LC
Format/Info                    : Advanced Audio Codec Low Complexity
Codec ID                       : A_AAC-2
Duration                       : 2 h 21 min
Bit rate                       : 96.0 kb/s
Channel(s)                     : 2 channels
Channel layout                 : L R
Sampling rate                  : 48.0 kHz
Frame rate                     : 46.875 FPS (1024 SPF)
Compression mode               : Lossy
Delay relative to video        : -21 ms
Stream size                    : 97.7 MiB (9%)
Title                          : GOPI SAHI
Language                       : Hindi
Default                        : Yes
Forced                         : No

Audio #2
ID                             : 3
Format                         : AAC LC
Format/Info                    : Advanced Audio Codec Low Complexity
Codec ID                       : A_AAC-2
Duration                       : 2 h 21 min
Bit rate                       : 96.0 kb/s
Channel(s)                     : 2 channels
Channel layout                 : L R
Sampling rate                  : 48.0 kHz
Frame rate                     : 46.875 FPS (1024 SPF)
Compression mode               : Lossy
Delay relative to video        : -21 ms
Stream size                    : 97.7 MiB (9%)
Title                          : GOPI SAHI
Language                       : English
Default                        : No
Forced                         : No

Text #1
ID                             : 4
Format                         : PGS
Muxing mode                    : zlib
Codec ID                       : S_HDMV/PGS
Codec ID/Info                  : Picture based subtitle format used on BDs/HD-DVDs
Duration                       : 2 h 14 min
Bit rate                       : 31.0 kb/s
Count of elements              : 3395
Stream size                    : 29.9 MiB (3%)
Title                          : GOPI SAHI
Language                       : English
Default                        : Yes
Forced                         : Yes

Text #2
ID                             : 5
Format                         : PGS
Muxing mode                    : zlib
Codec ID                       : S_HDMV/PGS
Codec ID/Info                  : Picture based subtitle format used on BDs/HD-DVDs
Duration                       : 2 h 14 min
Bit rate                       : 26.6 kb/s
Count of elements              : 3521
Stream size                    : 25.7 MiB (2%)
Title                          : GOPI SAHI
Language                       : Hindi
Default                        : No
Forced                         : No

Menu
00:00:00.000                   : :Chapter 1
00:07:05.592                   : :Chapter 2
00:14:28.201                   : :Chapter 3
00:20:13.838                   : :Chapter 4
00:29:27.099                   : :Chapter 5
00:39:02.590                   : :Chapter 6
00:50:56.804                   : :Chapter 7
00:59:52.923                   : :Chapter 8
01:08:53.129                   : :Chapter 9
01:16:20.117                   : :Chapter 10
01:25:27.831                   : :Chapter 11
01:35:23.259                   : :Chapter 12
01:41:30.334                   : :Chapter 13
01:49:18.343                   : :Chapter 14
01:57:00.639                   : :Chapter 15
02:04:44.352                   : :Chapter 16