The Art Of Selfdefense 2019 x264 720p WebHD Esub Dual Audio English Hindi THE GOPI SAHI

 

The Art of Self-Defense (2019)

R 09/13/2019 (MX) ActionComedyThriller 1h 44m 

Overview

Casey is attacked at random on the street and enlists in a local dojo led by a charismatic and mysterious Sensei in an effort to learn how to defend himself. What he uncovers is a sinister world of fraternity, violence and hypermasculinity and a woman fighting for her place in it.

Directed byRiley Stearns
Produced by
  • Andrew Kortschak
  • Walter Kortschak
  • Cody Ryder
  • Stephane Whonsetler
Written byRiley Stearns
Starring
Music byHeather McIntosh
CinematographyMichael Ragen
Edited bySarah Beth Shapiro
Production
company
End Cue
Distributed byBleecker Street
Release date
  • March 10, 2019 (SXSW)
  • July 12, 2019 (United States)
Running time
104 minutes[1]
CountryUnited States
LanguageEnglish
Box office$2.4 million[2]

 


The Art Of Selfdefense 2019 x264 720p WebHD Esub Dual Audio English Hindi THE GOPI SAHI


Format                         : Matroska
Format version                 : Version 4
File size                      : 959 MiB
Duration                       : 1 h 44 min
Overall bit rate               : 1 285 kb/s
Movie name                     : The Art Of Selfdefense 2019 GOPI SAHI
Encoded date                   : UTC 2021-06-20 04:38:12

Video
ID                             : 1
Format                         : AVC
Format/Info                    : Advanced Video Codec
Format profile                 : [email protected]
Format settings                : CABAC / 5 Ref Frames
Format settings, CABAC         : Yes
Format settings, Reference fra : 5 frames
Codec ID                       : V_MPEG4/ISO/AVC
Duration                       : 1 h 44 min
Bit rate                       : 899 kb/s
Width                          : 1 280 pixels
Height                         : 694 pixels
Display aspect ratio           : 1.85:1
Frame rate mode                : Constant
Frame rate                     : 23.976 (24000/1001) FPS
Color space                    : YUV
Chroma subsampling             : 4:2:0
Bit depth                      : 8 bits
Scan type                      : Progressive
Bits/(Pixel*Frame)             : 0.042
Stream size                    : 671 MiB (70%)
Title                          : GOPI SAHI
Writing library                : x264 core 157 r2935 545de2f
Forced                         : No
Color range                    : Limited
Color primaries                : BT.709
Transfer characteristics       : BT.709
Matrix coefficients            : BT.709

Audio #1
ID                             : 2
Format                         : AAC LC
Format/Info                    : Advanced Audio Codec Low Complexity
Codec ID                       : A_AAC-2
Duration                       : 1 h 44 min
Bit rate                       : 192 kb/s
Channel(s)                     : 6 channels
Channel layout                 : C L R Ls Rs LFE
Sampling rate                  : 48.0 kHz
Frame rate                     : 46.875 FPS (1024 SPF)
Compression mode               : Lossy
Delay relative to video        : -21 ms
Stream size                    : 143 MiB (15%)
Title                          : GOPI SAHI
Language                       : Hindi
Default                        : Yes
Forced                         : No

Audio #2
ID                             : 3
Format                         : AAC LC
Format/Info                    : Advanced Audio Codec Low Complexity
Codec ID                       : A_AAC-2
Duration                       : 1 h 44 min
Bit rate                       : 192 kb/s
Channel(s)                     : 6 channels
Channel layout                 : C L R Ls Rs LFE
Sampling rate                  : 48.0 kHz
Frame rate                     : 46.875 FPS (1024 SPF)
Compression mode               : Lossy
Delay relative to video        : -21 ms
Stream size                    : 143 MiB (15%)
Title                          : GOPI SAHI
Language                       : English
Default                        : No
Forced                         : No

Text
ID                             : 4
Format                         : UTF-8
Codec ID                       : S_TEXT/UTF8
Codec ID/Info                  : UTF-8 Plain Text
Duration                       : 1 h 40 min
Bit rate                       : 56 b/s
Count of elements              : 1190
Stream size                    : 41.5 KiB (0%)
Title                          : GOPI SAHI
Language                       : English
Default                        : Yes
Forced                         : No





 MAGNET

TORRENT

TORRENT 2 480P AND 720P CHOOSE WHICH ONE DWONLOAD

GDRIVE FILE COPY

DWONLOAD AUTO START IN 20 SEC

DOWNLOAD AND ONLINE TERABOX LINK = PASSWORD = dayx

DWONLOAD AUTO START IN 20 SEC ZIP FILE

MEDIAFIRE

MEGANZ

RU

DWNLOAD AND ONLINE

ONLINE 720P

 

Post a Comment

0 Comments