The Bounty Hunter 2010 x264 720p Esub BluRay Dual Audio English Hindi THE GOPI SAHI


The Bounty Hunter (2010)

PG-13 03/19/2010 (US) ComedyActionDrama 1h 50m

It's a Job. It Isn't Personal. Well, Maybe a Little...

Overview

Milo Boyd is a bounty hunter whose latest gig is rather satisfying, as he finds out that the bail-skipper he must chase down is his own ex-wife, Nicole -- but she has no intention of getting nabbed without a fight. Complicating matters, Nicole's wannabe-boyfriend, Stewart, joins the chase.

Directed byAndy Tennant
Produced byNeal H. Moritz
Written bySarah Thorp
Starring
Music byGeorge Fenton
CinematographyOliver Bokelberg
Edited byTroy Takaki
Production
company
Distributed bySony Pictures Releasing[1]
Release date
  • March 19, 2010
Running time
106 minutes[1]
CountryUnited States[1]
LanguageEnglish
Budget$40–$45 million[2]
Box office$136.3 million[3]


The Bounty Hunter 2010 x264 720p Esub BluRay Dual Audio English Hindi THE GOPI SAHI


Format                         : Matroska

Format version                 : Version 4

File size                      : 906 MiB

Duration                       : 1 h 50 min

Overall bit rate               : 1 144 kb/s

Movie name                     : The Bounty Hunter 2010 GOPI SAHI

Encoded date                   : UTC 2020-08-10 04:59:20


Video

ID                             : 1

Format                         : AVC

Format/Info                    : Advanced Video Codec

Format profile                 : [email protected]

Format settings                : CABAC / 5 Ref Frames

Format settings, CABAC         : Yes

Format settings, Reference fra : 5 frames

Codec ID                       : V_MPEG4/ISO/AVC

Duration                       : 1 h 50 min

Bit rate                       : 899 kb/s

Width                          : 1 280 pixels

Height                         : 544 pixels

Display aspect ratio           : 2.35:1

Frame rate mode                : Constant

Frame rate                     : 23.976 (24000/1001) FPS

Color space                    : YUV

Chroma subsampling             : 4:2:0

Bit depth                      : 8 bits

Scan type                      : Progressive

Bits/(Pixel*Frame)             : 0.054

Stream size                    : 711 MiB (79%)

Title                          : GOPI SAHI

Writing library                : x264 core 157 r2935 545de2f


Audio #1

ID                             : 2

Format                         : AAC LC

Format/Info                    : Advanced Audio Codec Low Complexity

Codec ID                       : A_AAC-2

Duration                       : 1 h 50 min

Bit rate                       : 96.0 kb/s

Channel(s)                     : 2 channels

Channel layout                 : L R

Sampling rate                  : 48.0 kHz

Frame rate                     : 46.875 FPS (1024 SPF)

Compression mode               : Lossy

Delay relative to video        : -21 ms

Stream size                    : 76.5 MiB (8%)

Title                          : GOPI SAHI

Language                       : Hindi

Default                        : Yes

Forced                         : No


Audio #2

ID                             : 3

Format                         : AAC LC

Format/Info                    : Advanced Audio Codec Low Complexity

Codec ID                       : A_AAC-2

Duration                       : 1 h 50 min

Bit rate                       : 96.0 kb/s

Channel(s)                     : 2 channels

Channel layout                 : L R

Sampling rate                  : 48.0 kHz

Frame rate                     : 46.875 FPS (1024 SPF)

Compression mode               : Lossy

Delay relative to video        : -21 ms

Stream size                    : 76.3 MiB (8%)

Title                          : GOPI SAHI

Language                       : English

Default                        : No

Forced                         : No


Text #1

ID                             : 4

Format                         : PGS

Muxing mode                    : zlib

Codec ID                       : S_HDMV/PGS

Codec ID/Info                  : Picture based subtitle format used on BDs/HD-DVDs

Duration                       : 1 h 45 min

Bit rate                       : 37.6 kb/s

Count of elements              : 3112

Stream size                    : 28.4 MiB (3%)

Title                          : GOPI SAHI

Language                       : Hindi

Default                        : Yes

Forced                         : No


Text #2

ID                             : 5

Format                         : PGS

Muxing mode                    : zlib

Codec ID                       : S_HDMV/PGS

Codec ID/Info                  : Picture based subtitle format used on BDs/HD-DVDs

Duration                       : 1 h 45 min

Bit rate                       : 40.6 kb/s

Count of elements              : 3042

Stream size                    : 30.6 MiB (3%)

Title                          : GOPI SAHI

Language                       : English

Default                        : No

Forced                         : No


Text #3

ID                             : 6

Format                         : PGS

Muxing mode                    : zlib

Codec ID                       : S_HDMV/PGS

Codec ID/Info                  : Picture based subtitle format used on BDs/HD-DVDs

Duration                       : 1 h 45 min

Bit rate                       : 40.6 kb/s

Count of elements              : 3034

Stream size                    : 30.6 MiB (3%)

Title                          : GOPI SAHI

Language                       : English

Default                        : No

Forced                         : No





MAGNET


TORRENT


TORRENT 2 480P AND 720P CHOOSE WHICH ONE DWONLOAD


GDRIVE FILE COPY


DWONLOAD AUTO START IN 20 SEC 


DOWNLOAD AND ONLINE TERABOX LINK = PASSWORD = c9yt


DWONLOAD AUTO START IN 20 SEC ZIP FILE


RU


MEDIAFIRE


DWNLOAD AND ONLINE


ONLINE 720P

 

Post a Comment

1 Comments

No Except Any Movie Request Here,Try To Donate Money For Website Then Request, If You No Donate Way Post Request Here ,Nonprofit Services, No Ads, No Any Earning, If Download Link Not Work Post a Comment On Movie Page For Re-upload, Post a Comment On Any Movie Page If You Donate For This Website, Thanks Keep Support. Any Torrent-Magnet Not Reseed,Seed Only First 30 Days,Then Use Google Drive For Download.