The Craft - Legacy 2020 x264 720p Esub BluRay English Hindi Italian THE GOPI SAHI

The Craft: Legacy (2020)

PG-13 10/28/2020 (GB) HorrorDramaFantasy 1h 34m 
 

Let the ritual begin

Overview

An eclectic foursome of aspiring teenage witches get more than they bargained for as they lean into their newfound powers.

Directed byZoe Lister-Jones
Produced by
Written by
Based onCharacters
by Peter Filardi
Starring
Music byHeather Christian
CinematographyHillary Spera
Edited byLibby Cuenin
Production
companies
Distributed bySony Pictures Releasing
Release date
  • October 28, 2020 (United States)
Running time
97 minutes
CountryUnited States
LanguageEnglish
Budget$18 million
Box office$2.3 million[1]

 


The Craft - Legacy 2020 x264 720p Esub BluRay English Hindi Italian THE GOPI SAHI


Format                         : Matroska
Format version                 : Version 4
File size                      : 869 MiB
Duration                       : 1 h 34 min
Overall bit rate               : 1 288 kb/s
Movie name                     : The Craft - Legacy 2020 GOPI SAHI
Encoded date                   : UTC 2021-06-02 15:05:34

Video
ID                             : 1
Format                         : AVC
Format/Info                    : Advanced Video Codec
Format profile                 : [email protected]L4.1
Format settings                : CABAC / 5 Ref Frames
Format settings, CABAC         : Yes
Format settings, Reference fra : 5 frames
Codec ID                       : V_MPEG4/ISO/AVC
Duration                       : 1 h 34 min
Bit rate                       : 899 kb/s
Width                          : 1 280 pixels
Height                         : 536 pixels
Display aspect ratio           : 2.40:1
Frame rate mode                : Constant
Frame rate                     : 23.976 (24000/1001) FPS
Color space                    : YUV
Chroma subsampling             : 4:2:0
Bit depth                      : 8 bits
Scan type                      : Progressive
Bits/(Pixel*Frame)             : 0.055
Stream size                    : 607 MiB (70%)
Title                          : GOPI SAHI
Writing library                : x264 core 157 r2935 545de2f

Audio #1
ID                             : 2
Format                         : AAC LC
Format/Info                    : Advanced Audio Codec Low Complexity
Codec ID                       : A_AAC-2
Duration                       : 1 h 34 min
Bit rate                       : 192 kb/s
Channel(s)                     : 6 channels
Channel layout                 : C L R Ls Rs LFE
Sampling rate                  : 48.0 kHz
Frame rate                     : 46.875 FPS (1024 SPF)
Compression mode               : Lossy
Delay relative to video        : 1 s 279 ms
Stream size                    : 130 MiB (15%)
Title                          : GOPI SAHI
Language                       : Hindi
Default                        : No
Forced                         : No

Audio #2
ID                             : 3
Format                         : AAC LC
Format/Info                    : Advanced Audio Codec Low Complexity
Codec ID                       : A_AAC-2
Duration                       : 1 h 34 min
Bit rate                       : 96.0 kb/s
Channel(s)                     : 2 channels
Channel layout                 : L R
Sampling rate                  : 48.0 kHz
Frame rate                     : 46.875 FPS (1024 SPF)
Compression mode               : Lossy
Delay relative to video        : -21 ms
Stream size                    : 65.1 MiB (7%)
Title                          : GOPI SAHI
Language                       : Italian
Default                        : Yes
Forced                         : No

Audio #3
ID                             : 4
Format                         : AAC LC
Format/Info                    : Advanced Audio Codec Low Complexity
Codec ID                       : A_AAC-2
Duration                       : 1 h 34 min
Bit rate                       : 96.0 kb/s
Channel(s)                     : 2 channels
Channel layout                 : L R
Sampling rate                  : 48.0 kHz
Frame rate                     : 46.875 FPS (1024 SPF)
Compression mode               : Lossy
Delay relative to video        : -21 ms
Stream size                    : 65.0 MiB (7%)
Title                          : GOPI SAHI
Language                       : English
Default                        : No
Forced                         : No

Text
ID                             : 5
Format                         : UTF-8
Codec ID                       : S_TEXT/UTF8
Codec ID/Info                  : UTF-8 Plain Text
Duration                       : 1 h 24 min
Bit rate                       : 48 b/s
Count of elements              : 982
Stream size                    : 30.0 KiB (0%)
Title                          : www.gopisahi.tk
Language                       : English
Default                        : Yes
Forced                         : No

Menu
00:00:00.000                   : :Capítulo 01
00:05:41.591                   : :Capítulo 02
00:11:13.798                   : :Capítulo 03
00:16:36.370                   : :Capítulo 04
00:21:00.301                   : :Capítulo 05
00:27:25.435                   : :Capítulo 06
00:32:54.139                   : :Capítulo 07
00:39:43.923                   : :Capítulo 08
00:44:14.735                   : :Capítulo 09
00:48:57.351                   : :Capítulo 10
00:55:33.372                   : :Capítulo 11
01:00:29.000                   : :Capítulo 12
01:06:41.414                   : :Capítulo 13
01:11:16.814                   : :Capítulo 14
01:15:37.450                   : :Capítulo 15
01:23:35.969                   : :Capítulo 16




 MAGNET

TORRENT

TORRENT 2 480P AND 720P CHOOSE WHICH ONE DWONLOAD

GDRIVE FILE COPY

DWONLOAD AUTO START IN 20 SEC

DOWNLOAD AND ONLINE TERABOX LINK = PASSWORD = d9s3

DWONLOAD AUTO START IN 20 SEC ZIP FILE

MB HINDI 480P DWONLOAD AUTO START IN 20 SEC

MULTIUP


MEDIAFIRE

DWNLOAD AND ONLINE

ONLINE 720P