The Fox and the Hound 1981 x264 1080p Esub English Hindi THE GOPI SAHI

 

The Fox and the Hound (1981)

G 07/10/1981 (US) AdventureAnimationDramaFamily 1h 22m 

A story of two friends who didn't know they were supposed to be enemies.

Overview

When a feisty little fox named Tod is adopted into a farm family, he quickly becomes friends with a fun and adorable hound puppy named Copper. Life is full of hilarious adventures until Copper is expected to take on his role as a hunting dog -- and the object of his search is his best friend!

 

Directed by
Produced by
Story by
Based onThe Fox and the Hound
by Daniel P. Mannix
Starring
Music byBuddy Baker
Edited by
  • James Melton
  • Jim Koford
Production
company
Distributed byBuena Vista Distribution
Release date
  • July 10, 1981
Running time
83 minutes
CountryUnited States
LanguageEnglish
Budget$12 million[1]
Box office$63.5 million[2]

 


 The Fox and the Hound 1981 x264 1080p Esub English Hindi THE GOPI SAHI


Format                         : Matroska
Format version                 : Version 4
File size                      : 1.06 GiB
Duration                       : 1 h 19 min
Overall bit rate               : 1 910 kb/s

The Fox and the Hound 1981 x264 1080p Esub English Hindi THE GOPI SAHI
Encoded date                   : UTC 2021-06-21 02:12:33
Cover                          : Yes
Attachments                    : cover.jpg

Video
ID                             : 1
Format                         : AVC
Format/Info                    : Advanced Video Codec
Format profile                 : [email protected]
Format settings                : CABAC / 4 Ref Frames
Format settings, CABAC         : Yes
Format settings, Reference fra : 4 frames
Codec ID                       : V_MPEG4/ISO/AVC
Duration                       : 1 h 19 min
Bit rate                       : 1 776 kb/s
Width                          : 1 920 pixels
Height                         : 1 080 pixels
Display aspect ratio           : 16:9
Frame rate mode                : Constant
Frame rate                     : 25.000 FPS
Color space                    : YUV
Chroma subsampling             : 4:2:0
Bit depth                      : 8 bits
Scan type                      : Progressive
Bits/(Pixel*Frame)             : 0.034
Stream size                    : 1 005 MiB (93%)
Title                          : GOPI SAHI
Writing library                : x264 core 155 r2917 0a84d98

Audio #1
ID                             : 2
Format                         : AAC LC
Format/Info                    : Advanced Audio Codec Low Complexity
Codec ID                       : A_AAC-2
Duration                       : 1 h 19 min
Bit rate                       : 64.3 kb/s
Channel(s)                     : 2 channels
Channel layout                 : L R
Sampling rate                  : 48.0 kHz
Frame rate                     : 46.875 FPS (1024 SPF)
Compression mode               : Lossy
Stream size                    : 36.4 MiB (3%)
Title                          : GOPI SAHI
Language                       : English
Default                        : Yes
Forced                         : No

Audio #2
ID                             : 3
Format                         : AAC LC
Format/Info                    : Advanced Audio Codec Low Complexity
Codec ID                       : A_AAC-2
Duration                       : 1 h 19 min
Bit rate                       : 64.3 kb/s
Channel(s)                     : 2 channels
Channel layout                 : L R
Sampling rate                  : 48.0 kHz
Frame rate                     : 46.875 FPS (1024 SPF)
Compression mode               : Lossy
Stream size                    : 36.4 MiB (3%)
Title                          : GOPI SAHI
Language                       : Hindi
Default                        : No
Forced                         : No

Text
ID                             : 4
Format                         : S_TEXT/WEBVTT
Codec ID                       : S_TEXT/WEBVTT
Duration                       : 1 h 13 min
Bit rate                       : 39 b/s
Count of elements              : 627
Stream size                    : 21.3 KiB (0%)
Title                          : GOPI SAHI
Language                       : English
Default                        : Yes
Forced                         : No




 MAGNET

TORRENT

TORRENT 2 480P AND 720P CHOOSE WHICH ONE DWONLOAD

GDRIVE FILE COPY

DWONLOAD AUTO START IN 20 SEC

DOWNLOAD AND ONLINE TERABOX LINK = PASSWORD = 83ha

DWONLOAD AUTO START IN 20 SEC ZIP FILE

MEDIAFIRE

MEGANZ

RU

DWNLOAD AND ONLINE

ONLINE 720P

 

 

Post a Comment

0 Comments