The Mountain Between Us 2017 x264 720p Esub BluRay Dual Audio English Hindi THE GOPI SAHI

The Mountain Between Us (2017)

PG-13 10/06/2017 (IN) RomanceAdventureDrama 1h 49m

What if your life depended on a stranger?

Overview

Stranded after a tragic plane crash, two strangers must forge a connection to survive the extreme elements of a remote snow covered mountain. When they realize help is not coming, they embark on a perilous journey across the wilderness. 


Directed byHany Abu-Assad
Produced by
Screenplay by
Based onThe Mountain Between Us
by Charles Martin
Starring
Music byRamin Djawadi
CinematographyMandy Walker
Edited byLee Percy
Production
companies
Distributed by20th Century Fox[1]
Release date
  • September 9, 2017 (TIFF)
  • October 6, 2017 (United States)
Running time
112 minutes[2]
CountryUnited States
LanguageEnglish
Budget$35 million[3]
Box office$62.8 million[3]


The Mountain Between Us 2017 x264 720p Esub BluRay Dual Audio English Hindi THE GOPI SAHI


Format                         : Matroska

Format version                 : Version 4

File size                      : 1.16 GiB

Duration                       : 1 h 51 min

Overall bit rate               : 1 481 kb/s

Movie name                     : The Mountain Between Us 2017 GOPI SAHI

Encoded date                   : UTC 2021-06-12 14:21:23


Video

ID                             : 1

Format                         : AVC

Format/Info                    : Advanced Video Codec

Format profile                 : [email protected]

Format settings                : CABAC / 5 Ref Frames

Format settings, CABAC         : Yes

Format settings, Reference fra : 5 frames

Codec ID                       : V_MPEG4/ISO/AVC

Duration                       : 1 h 51 min

Bit rate                       : 899 kb/s

Width                          : 1 280 pixels

Height                         : 536 pixels

Display aspect ratio           : 2.40:1

Frame rate mode                : Constant

Frame rate                     : 23.976 (24000/1001) FPS

Color space                    : YUV

Chroma subsampling             : 4:2:0

Bit depth                      : 8 bits

Scan type                      : Progressive

Bits/(Pixel*Frame)             : 0.055

Stream size                    : 718 MiB (61%)

Title                          : GOPI SAHI

Writing library                : x264 core 157 r2935 545de2f


Audio #1

ID                             : 2

Format                         : AAC LC

Format/Info                    : Advanced Audio Codec Low Complexity

Codec ID                       : A_AAC-2

Duration                       : 1 h 51 min

Bit rate                       : 384 kb/s

Channel(s)                     : 6 channels

Channel layout                 : C L R Ls Rs LFE

Sampling rate                  : 48.0 kHz

Frame rate                     : 46.875 FPS (1024 SPF)

Compression mode               : Lossy

Delay relative to video        : -21 ms

Stream size                    : 307 MiB (26%)

Title                          : GOPI SAHI

Language                       : Hindi

Default                        : Yes

Forced                         : No


Audio #2

ID                             : 3

Format                         : AAC LC

Format/Info                    : Advanced Audio Codec Low Complexity

Codec ID                       : A_AAC-2

Duration                       : 1 h 51 min

Bit rate                       : 192 kb/s

Channel(s)                     : 6 channels

Channel layout                 : C L R Ls Rs LFE

Sampling rate                  : 48.0 kHz

Frame rate                     : 46.875 FPS (1024 SPF)

Compression mode               : Lossy

Delay relative to video        : -21 ms

Stream size                    : 153 MiB (13%)

Title                          : GOPI SAHI

Language                       : English

Default                        : No

Forced                         : No


Text

ID                             : 4

Format                         : VobSub

Muxing mode                    : zlib

Codec ID                       : S_VOBSUB

Codec ID/Info                  : Picture based subtitle format used on DVDs

Duration                       : 1 h 48 min

Bit rate                       : 6 809 b/s

Count of elements              : 1337

Stream size                    : 5.27 MiB (0%)

Title                          : GOPI SAHI

Language                       : English

Default                        : No

Forced                         : No






MAGNET


TORRENT


TORRENT 2 480P AND 720P CHOOSE WHICH ONE DWONLOAD


GDRIVE FILE COPY


DWONLOAD AUTO START IN 20 SEC 


DOWNLOAD AND ONLINE TERABOX LINK = PASSWORD = aazy


DWONLOAD AUTO START IN 20 SEC ZIP FILE


630 MB HINDI 480P DWONLOAD AUTO START IN 20 SEC 


MEDIAFIRE


DWNLOAD AND ONLINE


ONLINE 720P



Post a Comment

1 Comments

No Except Any Movie Request Here,Try To Donate Money For Website Then Request, If You No Donate Way Post Request Here ,Nonprofit Services, No Ads, No Any Earning, If Download Link Not Work Post a Comment On Movie Page For Re-upload, Post a Comment On Any Movie Page If You Donate For This Website, Thanks Keep Support. Any Torrent-Magnet Not Reseed,Seed Only First 30 Days,Then Use Google Drive For Download.