The Pacifier 2005 x264 1080p Esub English Hindi THE GOPI SAHI

 

The Pacifier (2005)

PG 03/04/2005 (US) ComedyFamily 1h 35m 
 

Welcome to the infantry.

Overview

Navy SEAL Shane Wolfe is handed a new assignment: Protect the five Plummer kids from enemies of their recently deceased father -- a government scientist whose top-secret experiment remains hidden in the kids' house.

Directed byAdam Shankman
Produced by
Written by
Starring
Music byJohn Debney
CinematographyPeter James
Edited byChristopher Greenbury
Production
companies
Distributed byBuena Vista Pictures Distribution[1]
Release date
  • March 4, 2005
Running time
95 minutes[1]
CountryUnited States
LanguageEnglish
Budget$56 million[2]
Box office$198.6 million[2]

 

 

 

The Pacifier 2005 x264 1080p Esub English Hindi THE GOPI SAHI


Format                         : Matroska
Format version                 : Version 4
File size                      : 1.34 GiB
Duration                       : 1 h 35 min
Overall bit rate               : 2 008 kb/s
Movie name                     : The Pacifier 2005 GOPI SAHI
Encoded date                   : UTC 2021-06-20 16:47:06

Video
ID                             : 1
Format                         : AVC
Format/Info                    : Advanced Video Codec
Format profile                 : [email protected]
Format settings                : CABAC / 4 Ref Frames
Format settings, CABAC         : Yes
Format settings, Reference fra : 4 frames
Codec ID                       : V_MPEG4/ISO/AVC
Duration                       : 1 h 35 min
Bit rate                       : 1 874 kb/s
Width                          : 1 920 pixels
Height                         : 1 080 pixels
Display aspect ratio           : 16:9
Frame rate mode                : Constant
Frame rate                     : 23.976 (24000/1001) FPS
Color space                    : YUV
Chroma subsampling             : 4:2:0
Bit depth                      : 8 bits
Scan type                      : Progressive
Bits/(Pixel*Frame)             : 0.038
Stream size                    : 1.25 GiB (93%)
Title                          : GOPI SAHI
Writing library                : x264 core 155 r2917 0a84d98

Audio #1
ID                             : 2
Format                         : AAC LC
Format/Info                    : Advanced Audio Codec Low Complexity
Codec ID                       : A_AAC-2
Duration                       : 1 h 35 min
Bit rate                       : 64.1 kb/s
Channel(s)                     : 2 channels
Channel layout                 : L R
Sampling rate                  : 48.0 kHz
Frame rate                     : 46.875 FPS (1024 SPF)
Compression mode               : Lossy
Stream size                    : 43.7 MiB (3%)
Title                          : GOPI SAHI
Language                       : English
Default                        : Yes
Forced                         : No

Audio #2
ID                             : 3
Format                         : AAC LC
Format/Info                    : Advanced Audio Codec Low Complexity
Codec ID                       : A_AAC-2
Duration                       : 1 h 35 min
Bit rate                       : 64.1 kb/s
Channel(s)                     : 2 channels
Channel layout                 : L R
Sampling rate                  : 48.0 kHz
Frame rate                     : 46.875 FPS (1024 SPF)
Compression mode               : Lossy
Stream size                    : 43.7 MiB (3%)
Title                          : GOPI SAHI
Language                       : Hindi
Default                        : No
Forced                         : No

Text
ID                             : 4
Format                         : S_TEXT/WEBVTT
Codec ID                       : S_TEXT/WEBVTT
Duration                       : 1 h 27 min
Bit rate                       : 52 b/s
Count of elements              : 1082
Stream size                    : 33.4 KiB (0%)
Title                          : GOPI SAHI
Language                       : English
Default                        : Yes
Forced                         : No

 

 

 MAGNET

TORRENT


TORRENT 2 480P AND 720P CHOOSE WHICH ONE DWONLOAD


GDRIVE FILE COPY

DWONLOAD AUTO START IN 20 SEC

DOWNLOAD AND ONLINE TERABOX LINK 

DWONLOAD AUTO START IN 20 SEC ZIP FILE

MEDIAFIRE

MEGANZ

RU

DWNLOAD AND ONLINE

ONLINE 720P

 

Post a Comment

0 Comments