The Parent Trap 1998 x264 1080p Esub English Hindi THE GOPI SAHI

 

The Parent Trap (1998)

PG 07/29/1998 (US) ComedyFamily 2h 7m 

Twice the Fun, Double the Trouble.

Overview

Hallie Parker and Annie James are identical twins separated at a young age because of their parents' divorce. unknowingly to their parents, the girls are sent to the same summer camp where they meet, discover the truth about themselves, and then plot with each other to switch places. Hallie meets her mother, and Annie meets her father for the first time in years.

 

Directed byNancy Meyers
Produced byCharles Shyer
Screenplay by
Based onLottie and Lisa
by Erich Kästner
Starring
Music byAlan Silvestri
CinematographyDean Cundey
Edited byStephen A. Rotter
Production
company
Distributed byBuena Vista Pictures Distribution
Release date
  • July 29, 1998 (United States)
Running time
128 minutes[1]
CountryUnited States[2][3]
LanguageEnglish
Budget$15 million[4]
Box office$92.1 million[5]

The Parent Trap 1996 x264 1080p Esub English Hindi THE GOPI SAHI


Format                         : Matroska
Format version                 : Version 4
File size                      : 2.50 GiB
Duration                       : 2 h 7 min
Overall bit rate               : 2 795 kb/s
Movie name                     :  The Parent Trap 1996 GOPI SAHI
Encoded date                   : UTC 2021-06-20 16:45:42
Writing application            : mkvmerge v58.0.0 ('Supper's Ready') 64-bit
Writing library                : libebml v1.4.2 + libmatroska v1.6.4
Cover                          : Yes
Attachments                    : cover.jpg

Video
ID                             : 1
Format                         : AVC
Format/Info                    : Advanced Video Codec
Format profile                 : [email protected]
Format settings                : CABAC / 4 Ref Frames
Format settings, CABAC         : Yes
Format settings, Reference fra : 4 frames
Codec ID                       : V_MPEG4/ISO/AVC
Duration                       : 2 h 7 min
Bit rate                       : 2 662 kb/s
Width                          : 1 920 pixels
Height                         : 1 080 pixels
Display aspect ratio           : 16:9
Frame rate mode                : Constant
Frame rate                     : 23.976 (24000/1001) FPS
Color space                    : YUV
Chroma subsampling             : 4:2:0
Bit depth                      : 8 bits
Scan type                      : Progressive
Bits/(Pixel*Frame)             : 0.054
Stream size                    : 2.38 GiB (95%)
Title                          : GOPI SAHI
Writing library                : x264

Audio #1
ID                             : 2
Format                         : AAC LC
Format/Info                    : Advanced Audio Codec Low Complexity
Codec ID                       : A_AAC-2
Duration                       : 2 h 7 min
Bit rate                       : 64.4 kb/s
Channel(s)                     : 2 channels
Channel layout                 : L R
Sampling rate                  : 48.0 kHz
Frame rate                     : 46.875 FPS (1024 SPF)
Compression mode               : Lossy
Stream size                    : 58.9 MiB (2%)
Title                          : GOPI SAHI
Language                       : English
Default                        : Yes
Forced                         : No

Audio #2
ID                             : 3
Format                         : AAC LC
Format/Info                    : Advanced Audio Codec Low Complexity
Codec ID                       : A_AAC-2
Duration                       : 2 h 7 min
Bit rate                       : 64.3 kb/s
Channel(s)                     : 2 channels
Channel layout                 : L R
Sampling rate                  : 48.0 kHz
Frame rate                     : 46.875 FPS (1024 SPF)
Compression mode               : Lossy
Stream size                    : 58.9 MiB (2%)
Title                          : GOPI SAHI
Language                       : Hindi
Default                        : No
Forced                         : No

Text
ID                             : 4
Format                         : S_TEXT/WEBVTT
Codec ID                       : S_TEXT/WEBVTT
Duration                       : 1 h 59 min
Bit rate                       : 65 b/s
Count of elements              : 2152
Stream size                    : 57.3 KiB (0%)
Title                          : GOPI SAHI
Language                       : English
Default                        : Yes
Forced                         : No


 MAGNET

TORRENT

TORRENT 2 480P AND 720P CHOOSE WHICH ONE DWONLOAD

GDRIVE FILE COPY

DWONLOAD AUTO START IN 20 SEC

DOWNLOAD AND ONLINE TERABOX LINK 


DWONLOAD AUTO START IN 20 SEC ZIP FILE

MEDIAFIRE

MEGANZ


DWNLOAD AND ONLINE

ONLINE 720P

 

Post a Comment

0 Comments