The Protector 2 AKA Tom Yum Goong 2 2013 x264 720p Esub BluRay Dual Audio English Hindi THE GOPI SAHI

 

The Protector 2 (2013)

R 05/02/2014 (US) Action 1h 44m 
 

Overview

Kham is the last in long line of guards who once watched over the King of Thailand's war elephants. Traditionally, only the perfect elephants could successfully help defend the throne, after his harrowing quest to retrieve the elephants, Kham returns to his village to live in peace. But for someone as good in martial arts as him, peace is but a wishful thought...

Directed byPrachya Pinkaew
Produced by
Written byEakisit Thairaat
Starring
Music byTerdsak Janpan[1]
CinematographyTeerawat Rujenatham[1]
Edited by
  • Manussas Worasingh
  • Ratchapun Pisutsintop
  • Chalerm Wongpim
  • Wichit Wattananon
  • Richara Phanomrat[1]
Distributed bySahamongkolfilm International
Release date
  • 23 October 2013 (Thailand)
Running time
103 minutes
CountryThailand
LanguagesThai
English
Budget$12-15 million[2]
Box office$3,302,463


The Protector 2 AKA Tom Yum Goong 2 2013 x264 720p Esub BluRay Dual Audio English Hindi THE GOPI SAHI

Format                         : Matroska
Format version                 : Version 4
File size                      : 814 MiB
Duration                       : 1 h 44 min
Overall bit rate               : 1 089 kb/s
Movie name                     : The Protector 2 AKA Tom Yum Goong 2 2013 GOPISAHI
Encoded date                   : UTC 2021-06-09 13:52:07

Video
ID                             : 1
Format                         : AVC
Format/Info                    : Advanced Video Codec
Format profile                 : [email protected]
Format settings                : CABAC / 5 Ref Frames
Format settings, CABAC         : Yes
Format settings, Reference fra : 5 frames
Codec ID                       : V_MPEG4/ISO/AVC
Duration                       : 1 h 44 min
Bit rate                       : 899 kb/s
Width                          : 1 280 pixels
Height                         : 542 pixels
Display aspect ratio           : 2.35:1
Frame rate mode                : Constant
Frame rate                     : 23.976 (24000/1001) FPS
Color space                    : YUV
Chroma subsampling             : 4:2:0
Bit depth                      : 8 bits
Scan type                      : Progressive
Bits/(Pixel*Frame)             : 0.054
Stream size                    : 672 MiB (83%)
Writing library                : x264 core 157 r2935 545de2f
Matrix coefficients            : BT.709

Audio #1
ID                             : 2
Format                         : AAC LC
Format/Info                    : Advanced Audio Codec Low Complexity
Codec ID                       : A_AAC-2
Duration                       : 1 h 40 min
Bit rate                       : 96.0 kb/s
Channel(s)                     : 2 channels
Channel layout                 : L R
Sampling rate                  : 48.0 kHz
Frame rate                     : 46.875 FPS (1024 SPF)
Compression mode               : Lossy
Delay relative to video        : 23 ms
Stream size                    : 70.1 MiB (9%)
Title                          : GOPI SAHI
Language                       : Hindi
Default                        : Yes
Forced                         : No

Audio #2
ID                             : 3
Format                         : AAC LC
Format/Info                    : Advanced Audio Codec Low Complexity
Codec ID                       : A_AAC-2
Duration                       : 1 h 40 min
Bit rate                       : 96.0 kb/s
Channel(s)                     : 2 channels
Channel layout                 : L R
Sampling rate                  : 48.0 kHz
Frame rate                     : 46.875 FPS (1024 SPF)
Compression mode               : Lossy
Stream size                    : 69.8 MiB (9%)
Title                          : GOPI SAHI
Language                       : English
Default                        : No
Forced                         : No

Text
ID                             : 4
Format                         : UTF-8
Codec ID                       : S_TEXT/UTF8
Codec ID/Info                  : UTF-8 Plain Text
Duration                       : 1 h 41 min
Bit rate                       : 15 b/s
Count of elements              : 402
Stream size                    : 11.2 KiB (0%)
Title                          : GOPI SAHI
Language                       : English
Default                        : Yes
Forced                         : No




 MAGNET

TORRENT


TORRENT 2 480P AND 720P CHOOSE WHICH ONE DWONLOAD

GDRIVE FILE COPY

DWONLOAD AUTO START IN 20 SEC

DOWNLOAD AND ONLINE TERABOX LINK = PASSWORD = aw8n

DWONLOAD AUTO START IN 20 SEC ZIP FILE

581 MB HINDI 480P DWONLOAD AUTO START IN 20 SEC

MEDIAFIRE

DWNLOAD AND ONLINE

ONLINE 720P

 

Post a Comment

0 Comments