The Sorcerer's Apprentice 2010 x264 1080p Esub English Hindi Telugu Tamil THE GOPI SAHI

The Sorcerer's Apprentice (2010)

PG 07/13/2010 (US) FantasyAdventureAction 1h 49m 

It's The Coolest Job Ever.

Overview

Balthazar Blake is a master sorcerer in modern-day Manhattan trying to defend the city from his arch-nemesis, Maxim Horvath. Balthazar can't do it alone, so he recruits Dave Stutler, a seemingly average guy who demonstrates hidden potential, as his reluctant protégé. The sorcerer gives his unwilling accomplice a crash course in the art and science of magic, and together, these unlikely partners work to stop the forces of darkness.

 

Directed byJon Turteltaub
Produced byJerry Bruckheimer
Screenplay by
Story by
Based onThe Sorcerer's Apprentice
by Johann Wolfgang von Goethe
Starring
Music byTrevor Rabin
CinematographyBojan Bazelli
Edited byWilliam Goldenberg
Production
companies
Distributed byWalt Disney Studios
Motion Pictures
Release date
  • July 8, 2010 (Fantasia Film Festival)
  • July 14, 2010
Running time
109 minutes
CountryUnited States
LanguageEnglish
Budget$150 million[1]
Box office$215.3 million[2]

 

 

The Sorcerer's Apprentice 2010 x264 1080p Esub English Hindi Telugu Tamil THE GOPI SAHI


Format                         : Matroska
Format version                 : Version 4
File size                      : 2.40 GiB
Duration                       : 1 h 49 min
Overall bit rate               : 3 154 kb/s
Movie name                     :  The Sorcerer's Apprentice 2010 GOPI SAHI
Encoded date                   : UTC 2021-06-20 16:40:15

Video
ID                             : 1
Format                         : AVC
Format/Info                    : Advanced Video Codec
Format profile                 : [email protected]
Format settings                : CABAC / 4 Ref Frames
Format settings, CABAC         : Yes
Format settings, Reference fra : 4 frames
Codec ID                       : V_MPEG4/ISO/AVC
Duration                       : 1 h 49 min
Bit rate                       : 2 253 kb/s
Width                          : 1 920 pixels
Height                         : 1 080 pixels
Display aspect ratio           : 16:9
Frame rate mode                : Constant
Frame rate                     : 23.976 (24000/1001) FPS
Color space                    : YUV
Chroma subsampling             : 4:2:0
Bit depth                      : 8 bits
Scan type                      : Progressive
Bits/(Pixel*Frame)             : 0.045
Stream size                    : 1.72 GiB (71%)
Title                          : GOPI SAHI
Writing library                : x264 core 155 r2917 0a84d98
Transfer characteristics       : BT.709

Audio #1
ID                             : 2
Format                         : E-AC-3
Format/Info                    : Enhanced AC-3
Commercial name                : Dolby Digital Plus
Codec ID                       : A_EAC3
Duration                       : 1 h 49 min
Bit rate mode                  : Constant
Bit rate                       : 192 kb/s
Channel(s)                     : 6 channels
Channel layout                 : L R C LFE Ls Rs
Sampling rate                  : 48.0 kHz
Frame rate                     : 31.250 FPS (1536 SPF)
Compression mode               : Lossy
Stream size                    : 150 MiB (6%)
Title                          : GOPI SAHI
Language                       : English
Service kind                   : Complete Main
Default                        : Yes
Forced                         : No

Audio #2
ID                             : 3
Format                         : E-AC-3
Format/Info                    : Enhanced AC-3
Commercial name                : Dolby Digital Plus
Codec ID                       : A_EAC3
Duration                       : 1 h 49 min
Bit rate mode                  : Constant
Bit rate                       : 192 kb/s
Channel(s)                     : 6 channels
Channel layout                 : L R C LFE Ls Rs
Sampling rate                  : 48.0 kHz
Frame rate                     : 31.250 FPS (1536 SPF)
Compression mode               : Lossy
Stream size                    : 150 MiB (6%)
Title                          : GOPI SAHI
Language                       : Hindi
Service kind                   : Complete Main
Default                        : No
Forced                         : No

Audio #3
ID                             : 4
Format                         : E-AC-3
Format/Info                    : Enhanced AC-3
Commercial name                : Dolby Digital Plus
Codec ID                       : A_EAC3
Duration                       : 1 h 49 min
Bit rate mode                  : Constant
Bit rate                       : 192 kb/s
Channel(s)                     : 6 channels
Channel layout                 : L R C LFE Ls Rs
Sampling rate                  : 48.0 kHz
Frame rate                     : 31.250 FPS (1536 SPF)
Compression mode               : Lossy
Stream size                    : 150 MiB (6%)
Title                          : GOPI SAHI
Language                       : Tamil
Service kind                   : Complete Main
Default                        : No
Forced                         : No

Audio #4
ID                             : 5
Format                         : E-AC-3
Format/Info                    : Enhanced AC-3
Commercial name                : Dolby Digital Plus
Codec ID                       : A_EAC3
Duration                       : 1 h 49 min
Bit rate mode                  : Constant
Bit rate                       : 192 kb/s
Channel(s)                     : 6 channels
Channel layout                 : L R C LFE Ls Rs
Sampling rate                  : 48.0 kHz
Frame rate                     : 31.250 FPS (1536 SPF)
Compression mode               : Lossy
Stream size                    : 150 MiB (6%)
Title                          : GOPI SAHI
Language                       : Telugu
Service kind                   : Complete Main
Default                        : No
Forced                         : No

Audio #5
ID                             : 6
Format                         : AAC LC
Format/Info                    : Advanced Audio Codec Low Complexity
Codec ID                       : A_AAC-2
Duration                       : 1 h 49 min
Bit rate                       : 128 kb/s
Channel(s)                     : 2 channels
Channel layout                 : L R
Sampling rate                  : 48.0 kHz
Frame rate                     : 46.875 FPS (1024 SPF)
Compression mode               : Lossy
Stream size                    : 100 MiB (4%)
Title                          : GOPI SAHI
Language                       : Indonesian
Default                        : No
Forced                         : No

Text
ID                             : 7
Format                         : S_TEXT/WEBVTT
Codec ID                       : S_TEXT/WEBVTT
Duration                       : 1 h 41 min
Bit rate                       : 50 b/s
Count of elements              : 1326
Stream size                    : 37.8 KiB (0%)
Title                          : GOPI SAHI
Language                       : English
Default                        : Yes
Forced                         : No

 

 MAGNET

TORRENT

TORRENT 2 480P AND 1080P CHOOSE WHICH ONE DWONLOAD


GDRIVE FILE COPY

DWONLOAD AUTO START IN 20 SEC

DOWNLOAD AND ONLINE TERABOX LINK

DWONLOAD AUTO START IN 20 SEC ZIP FILE


MEDIAFIRE

MEGANZ


DWNLOAD AND ONLINE

ONLINE 720P

 ONLINE 720P-360P=PART-1-TO-END

PART-1




















Post a Comment

0 Comments