The Virus Lockdown 2021 x264 720p WebHD Esub Hindi THE GOPI SAHI

 The Virus Lockdown 2021 x264 720p WebHD Hindi THE GOPI SAHI


 


 

The Virus Lockdown 2021 x264 720p WebHD Esub Hindi THE GOPI SAHI


Format                         : Matroska

Format version                 : Version 4

File size                      : 891 MiB

Duration                       : 2 h 4 min

Overall bit rate               : 996 kb/s

Movie name                     : The Virus Lockdown 2021 GOPI SAHI

Encoded date                   : UTC 2021-06-13 14:47:46


Video

ID                             : 1

Format                         : AVC

Format/Info                    : Advanced Video Codec

Format profile                 : [email protected]

Format settings                : CABAC / 5 Ref Frames

Format settings, CABAC         : Yes

Format settings, Reference fra : 5 frames

Codec ID                       : V_MPEG4/ISO/AVC

Duration                       : 2 h 4 min

Bit rate                       : 899 kb/s

Width                          : 1 280 pixels

Height                         : 578 pixels

Display aspect ratio           : 2.2:1

Frame rate mode                : Constant

Frame rate                     : 25.000 FPS

Color space                    : YUV

Chroma subsampling             : 4:2:0

Bit depth                      : 8 bits

Scan type                      : Progressive

Bits/(Pixel*Frame)             : 0.049

Stream size                    : 803 MiB (90%)

Title                          : GOPI SAHI

Writing library                : x264 core 157 r2935 545de2f

Language                       : Hindi

Default                        : Yes

Forced                         : No

Color range                    : Limited

Color primaries                : BT.709

Transfer characteristics       : BT.709

Matrix coefficients            : BT.709


Audio

ID                             : 2

Format                         : AAC LC

Format/Info                    : Advanced Audio Codec Low Complexity

Codec ID                       : A_AAC-2

Duration                       : 2 h 4 min

Bit rate                       : 96.0 kb/s

Channel(s)                     : 2 channels

Channel layout                 : L R

Sampling rate                  : 48.0 kHz

Frame rate                     : 46.875 FPS (1024 SPF)

Compression mode               : Lossy

Delay relative to video        : -101 ms

Stream size                    : 85.2 MiB (10%)

Title                          : GOPI SAHI

Language                       : Hindi

Default                        : Yes

Forced                         : No




 MAGNET


TORRENT


TORRENT 2 480P AND 720P CHOOSE WHICH ONE DWONLOAD


GDRIVE FILE COPY


DWONLOAD AUTO START IN 20 SEC 


DOWNLOAD AND ONLINE TERABOX LINK = PASSWORD = nh87


DWONLOAD AUTO START IN 20 SEC ZIP FILE


715 MB HINDI 480P DWONLOAD AUTO START IN 20 SEC 


MEDIAFIRE


DWNLOAD AND ONLINE


ONLINE 720P

 

Post a Comment

0 Comments