Toy Story 1995 x264 1080p Esub English Hindi Telugu Tamil THE GOPI SAHI

Toy Story (1995)

G 11/22/1995 (US) AnimationAdventureFamilyComedy 1h 21m 
 

Overview

Led by Woody, Andy's toys live happily in his room until Andy's birthday brings Buzz Lightyear onto the scene. Afraid of losing his place in Andy's heart, Woody plots against Buzz. But when circumstances separate Buzz and Woody from their owner, the duo eventually learns to put aside their differences.

Directed byJohn Lasseter
Produced by
Screenplay by
Story by
Starring
Music byRandy Newman
Edited by
Production
companies
Distributed byBuena Vista Pictures Distribution
Release date
Running time
81 minutes[1]
CountryUnited States
LanguageEnglish
Budget$30 million[2]
Box office$373 million[3]


 

 Toy Story 1995 x264 1080p Esub English Hindi Telugu Tamil THE GOPI SAHI


Format                         : Matroska
Format version                 : Version 4
File size                      : 1.53 GiB
Duration                       : 1 h 21 min
Overall bit rate               : 2 702 kb/s
Movie name                     :  Toy Story 1995 GOPI SAHI
Encoded date                   : UTC 2021-06-21 02:06:27


Video
ID                             : 1
Format                         : AVC
Format/Info                    : Advanced Video Codec
Format profile                 : [email protected]
Format settings                : CABAC / 4 Ref Frames
Format settings, CABAC         : Yes
Format settings, Reference fra : 4 frames
Codec ID                       : V_MPEG4/ISO/AVC
Duration                       : 1 h 21 min
Bit rate                       : 2 310 kb/s
Width                          : 1 920 pixels
Height                         : 1 080 pixels
Display aspect ratio           : 16:9
Frame rate mode                : Constant
Frame rate                     : 23.976 (24000/1001) FPS
Color space                    : YUV
Chroma subsampling             : 4:2:0
Bit depth                      : 8 bits
Scan type                      : Progressive
Bits/(Pixel*Frame)             : 0.046
Stream size                    : 1.31 GiB (86%)
Title                          : GOPI SAHI
Writing library                : x264 core 155 r2917 0a84d98

Audio #1
ID                             : 2
Format                         : E-AC-3
Format/Info                    : Enhanced AC-3
Commercial name                : Dolby Digital Plus
Codec ID                       : A_EAC3
Duration                       : 1 h 21 min
Bit rate mode                  : Constant
Bit rate                       : 192 kb/s
Channel(s)                     : 6 channels
Channel layout                 : L R C LFE Ls Rs
Sampling rate                  : 48.0 kHz
Frame rate                     : 31.250 FPS (1536 SPF)
Compression mode               : Lossy
Stream size                    : 111 MiB (7%)
Title                          : GOPI SAHI
Language                       : English
Service kind                   : Complete Main
Default                        : Yes
Forced                         : No

Audio #2
ID                             : 3
Format                         : AAC LC
Format/Info                    : Advanced Audio Codec Low Complexity
Codec ID                       : A_AAC-2
Duration                       : 1 h 21 min
Bit rate                       : 64.4 kb/s
Channel(s)                     : 2 channels
Channel layout                 : L R
Sampling rate                  : 48.0 kHz
Frame rate                     : 46.875 FPS (1024 SPF)
Compression mode               : Lossy
Stream size                    : 37.3 MiB (2%)
Title                          : GOPI SAHI
Language                       : Hindi
Default                        : No
Forced                         : No

Audio #3
ID                             : 4
Format                         : AAC LC
Format/Info                    : Advanced Audio Codec Low Complexity
Codec ID                       : A_AAC-2
Duration                       : 1 h 21 min
Bit rate                       : 64.4 kb/s
Channel(s)                     : 2 channels
Channel layout                 : L R
Sampling rate                  : 48.0 kHz
Frame rate                     : 46.875 FPS (1024 SPF)
Compression mode               : Lossy
Stream size                    : 37.3 MiB (2%)
Title                          : GOPI SAHI
Language                       : Tamil
Default                        : No
Forced                         : No

Audio #4
ID                             : 5
Format                         : AAC LC
Format/Info                    : Advanced Audio Codec Low Complexity
Codec ID                       : A_AAC-2
Duration                       : 1 h 21 min
Bit rate                       : 64.4 kb/s
Channel(s)                     : 2 channels
Channel layout                 : L R
Sampling rate                  : 48.0 kHz
Frame rate                     : 46.875 FPS (1024 SPF)
Compression mode               : Lossy
Stream size                    : 37.3 MiB (2%)
Title                          : GOPI SAHI
Language                       : Telugu
Default                        : No
Forced                         : No

Text
ID                             : 6
Format                         : S_TEXT/WEBVTT
Codec ID                       : S_TEXT/WEBVTT
Duration                       : 1 h 16 min
Bit rate                       : 64 b/s
Count of elements              : 1062
Stream size                    : 36.1 KiB (0%)
Title                          : GOPI SAHI
Language                       : English
Default                        : Yes
Forced                         : No

 

MAGNET

TORRENT

TORRENT 2 


GDRIVE FILE COPY

DWONLOAD AUTO START IN 20 SEC

DOWNLOAD AND ONLINE TERABOX LINK

3 MOVIE DWONLOAD AUTO START IN 20 SEC ZIP FILE

MEDIAFIRE

MEGANZ

RU

DWNLOAD AND ONLINE

ONLINE 720P

ONLINE 720P-360P=PART-1-TO-END

PART-1














Post a Comment

0 Comments