Toy Story 2 1999 x264 1080p Esub English Hindi Telugu Tamil THE GOPI SAHI

 

Toy Story 2 (1999)

G 11/24/1999 (US) AnimationComedyFamily 1h 32m 

The toys are back!

Overview

Andy heads off to Cowboy Camp, leaving his toys to their own devices. Things shift into high gear when an obsessive toy collector named Al McWhiggen, owner of Al's Toy Barn kidnaps Woody. Andy's toys mount a daring rescue mission, Buzz Lightyear meets his match and Woody has to decide where he and his heart truly belong.

Directed by
Produced by
  • Helene Plotkin
  • Karen Robert Jackson
Screenplay by
Story by
Starring
Music byRandy Newman
CinematographySharon Calahan
Edited by
Production
companies
Distributed byBuena Vista Pictures Distribution
Release date
Running time
92 minutes[2]
CountryUnited States
LanguageEnglish
Budget$90 million[3]
Box office$497.4 million[3]

 

Toy Story 2 1999 x264 1080p Esub English Hindi Telugu Tamil THE GOPI SAHI

Format                         : Matroska
Format version                 : Version 4
File size                      : 1.63 GiB
Duration                       : 1 h 28 min
Overall bit rate               : 2 631 kb/s

Toy Story 2 1999 x264 1080p Esub English Hindi Telugu Tamil THE GOPI SAHI 

Encoded date                   : UTC 2021-06-20 16:34:14

Video
ID                             : 1
Format                         : AVC
Format/Info                    : Advanced Video Codec
Format profile                 : [email protected]
Format settings                : CABAC / 4 Ref Frames
Format settings, CABAC         : Yes
Format settings, Reference fra : 4 frames
Codec ID                       : V_MPEG4/ISO/AVC
Duration                       : 1 h 28 min
Bit rate                       : 2 367 kb/s
Width                          : 1 920 pixels
Height                         : 1 080 pixels
Display aspect ratio           : 16:9
Frame rate mode                : Constant
Frame rate                     : 25.000 FPS
Color space                    : YUV
Chroma subsampling             : 4:2:0
Bit depth                      : 8 bits
Scan type                      : Progressive
Bits/(Pixel*Frame)             : 0.046
Stream size                    : 1.46 GiB (90%)
Title                          : GOPI SAHI
Writing library                : x264 core 155 r2917 0a84d98

Audio #1
ID                             : 2
Format                         : AAC LC
Format/Info                    : Advanced Audio Codec Low Complexity
Codec ID                       : A_AAC-2
Duration                       : 1 h 28 min
Bit rate                       : 64.4 kb/s
Channel(s)                     : 2 channels
Channel layout                 : L R
Sampling rate                  : 48.0 kHz
Frame rate                     : 46.875 FPS (1024 SPF)
Compression mode               : Lossy
Stream size                    : 40.7 MiB (2%)
Title                          : GOPI SAHI
Language                       : English
Default                        : Yes
Forced                         : No

Audio #2
ID                             : 3
Format                         : AAC LC
Format/Info                    : Advanced Audio Codec Low Complexity
Codec ID                       : A_AAC-2
Duration                       : 1 h 28 min
Bit rate                       : 64.4 kb/s
Channel(s)                     : 2 channels
Channel layout                 : L R
Sampling rate                  : 48.0 kHz
Frame rate                     : 46.875 FPS (1024 SPF)
Compression mode               : Lossy
Stream size                    : 40.7 MiB (2%)
Title                          : GOPI SAHI
Language                       : Hindi
Default                        : No
Forced                         : No

Audio #3
ID                             : 4
Format                         : AAC LC
Format/Info                    : Advanced Audio Codec Low Complexity
Codec ID                       : A_AAC-2
Duration                       : 1 h 28 min
Bit rate                       : 64.4 kb/s
Channel(s)                     : 2 channels
Channel layout                 : L R
Sampling rate                  : 48.0 kHz
Frame rate                     : 46.875 FPS (1024 SPF)
Compression mode               : Lossy
Stream size                    : 40.7 MiB (2%)
Title                          : GOPI SAHI
Language                       : Tamil
Default                        : No
Forced                         : No

Audio #4
ID                             : 5
Format                         : AAC LC
Format/Info                    : Advanced Audio Codec Low Complexity
Codec ID                       : A_AAC-2
Duration                       : 1 h 28 min
Bit rate                       : 64.4 kb/s
Channel(s)                     : 2 channels
Channel layout                 : L R
Sampling rate                  : 48.0 kHz
Frame rate                     : 46.875 FPS (1024 SPF)
Compression mode               : Lossy
Stream size                    : 40.7 MiB (2%)
Title                          : GOPI SAHI
Language                       : Telugu
Default                        : No
Forced                         : No

Text
ID                             : 6
Format                         : S_TEXT/WEBVTT
Codec ID                       : S_TEXT/WEBVTT
Duration                       : 1 h 25 min
Bit rate                       : 64 b/s
Count of elements              : 1143
Stream size                    : 40.5 KiB (0%)
Title                          : GOPI SAHI
Language                       : English
Default                        : Yes
Forced                         : No

 

MAGNET

TORRENT

TORRENT 2


GDRIVE FILE COPY


DWONLOAD AUTO START IN 20 SEC

DOWNLOAD AND ONLINE TERABOX LINK

3 MOVIE DWONLOAD AUTO START IN 20 SEC ZIP FILE

MEDIAFIRE

MEGANZ

RU

DWNLOAD AND ONLINE

ONLINE 720P


ONLINE 720P-360P=PART-1-TO-END

PART-1
















Post a Comment

0 Comments