Toy Story 3 2010 x264 1080p Esub English Hindi Telugu Tamil THE GOPI SAHI

Toy Story 3 (2010)

G 06/25/2010 (IN) AnimationFamilyComedy 1h 43m 
 

No toy gets left behind.

Overview

Woody, Buzz, and the rest of Andy's toys haven't been played with in years. With Andy about to go to college, the gang find themselves accidentally left at a nefarious day care center. The toys must band together to escape and return home to Andy.

Directed byLee Unkrich
Produced byDarla K. Anderson
Screenplay byMichael Arndt
Story by
Starring
Music byRandy Newman
Cinematography
  • Jeremy Lasky
  • Kim White
Edited byKen Schretzmann
Production
companies
Distributed byWalt Disney Studios
Motion Pictures
Release date
Running time
103 minutes[1]
CountryUnited States
LanguageEnglish
Budget$200 million[1]
Box office$1.067 billion[1]

Toy Story 3 2010 x264 1080p Esub English Hindi Telugu Tamil THE GOPI SAHI


Format                         : Matroska
Format version                 : Version 4
File size                      : 2.16 GiB
Duration                       : 1 h 42 min
Overall bit rate               : 3 022 kb/s

Toy Story 3 2010 x264 1080p Esub English Hindi Telugu Tamil THE GOPI SAHI
Encoded date                   : UTC 2021-06-20 16:36:10

Video
ID                             : 1
Format                         : AVC
Format/Info                    : Advanced Video Codec
Format profile                 : [email protected]
Format settings                : CABAC / 4 Ref Frames
Format settings, CABAC         : Yes
Format settings, Reference fra : 4 frames
Codec ID                       : V_MPEG4/ISO/AVC
Duration                       : 1 h 42 min
Bit rate                       : 2 250 kb/s
Width                          : 1 920 pixels
Height                         : 1 080 pixels
Display aspect ratio           : 16:9
Frame rate mode                : Constant
Frame rate                     : 23.976 (24000/1001) FPS
Color space                    : YUV
Chroma subsampling             : 4:2:0
Bit depth                      : 8 bits
Scan type                      : Progressive
Bits/(Pixel*Frame)             : 0.045
Stream size                    : 1.61 GiB (74%)
Title                          : GOPI SAHI
Writing library                : x264 core 155 r2917 0a84d98

Audio #1
ID                             : 2
Format                         : E-AC-3
Format/Info                    : Enhanced AC-3
Commercial name                : Dolby Digital Plus
Codec ID                       : A_EAC3
Duration                       : 1 h 42 min
Bit rate mode                  : Constant
Bit rate                       : 192 kb/s
Channel(s)                     : 6 channels
Channel layout                 : L R C LFE Ls Rs
Sampling rate                  : 48.0 kHz
Frame rate                     : 31.250 FPS (1536 SPF)
Compression mode               : Lossy
Stream size                    : 141 MiB (6%)
Title                          : GOPI SAHI
Language                       : English
Service kind                   : Complete Main
Default                        : Yes
Forced                         : No

Audio #2
ID                             : 3
Format                         : E-AC-3
Format/Info                    : Enhanced AC-3
Commercial name                : Dolby Digital Plus
Codec ID                       : A_EAC3
Duration                       : 1 h 42 min
Bit rate mode                  : Constant
Bit rate                       : 192 kb/s
Channel(s)                     : 6 channels
Channel layout                 : L R C LFE Ls Rs
Sampling rate                  : 48.0 kHz
Frame rate                     : 31.250 FPS (1536 SPF)
Compression mode               : Lossy
Stream size                    : 141 MiB (6%)
Title                          : GOPI SAHI
Language                       : Hindi
Service kind                   : Complete Main
Default                        : No
Forced                         : No

Audio #3
ID                             : 4
Format                         : E-AC-3
Format/Info                    : Enhanced AC-3
Commercial name                : Dolby Digital Plus
Codec ID                       : A_EAC3
Duration                       : 1 h 42 min
Bit rate mode                  : Constant
Bit rate                       : 192 kb/s
Channel(s)                     : 6 channels
Channel layout                 : L R C LFE Ls Rs
Sampling rate                  : 48.0 kHz
Frame rate                     : 31.250 FPS (1536 SPF)
Compression mode               : Lossy
Stream size                    : 141 MiB (6%)
Title                          : GOPI SAHI
Language                       : Tamil
Service kind                   : Complete Main
Default                        : No
Forced                         : No

Audio #4
ID                             : 5
Format                         : E-AC-3
Format/Info                    : Enhanced AC-3
Commercial name                : Dolby Digital Plus
Codec ID                       : A_EAC3
Duration                       : 1 h 42 min
Bit rate mode                  : Constant
Bit rate                       : 192 kb/s
Channel(s)                     : 6 channels
Channel layout                 : L R C LFE Ls Rs
Sampling rate                  : 48.0 kHz
Frame rate                     : 31.250 FPS (1536 SPF)
Compression mode               : Lossy
Stream size                    : 141 MiB (6%)
Title                          : GOPI SAHI
Language                       : Telugu
Service kind                   : Complete Main
Default                        : No
Forced                         : No

Text
ID                             : 6
Format                         : S_TEXT/WEBVTT
Codec ID                       : S_TEXT/WEBVTT
Duration                       : 1 h 36 min
Bit rate                       : 57 b/s
Count of elements              : 1234
Stream size                    : 40.4 KiB (0%)
Title                          : GOPI SAHI
Language                       : English
Default                        : Yes
Forced                         : No

 

 MAGNET

TORRENT

TORRENT 2


GDRIVE FILE COPY

DWONLOAD AUTO START IN 20 SEC

3 MOVIE DWONLOAD AUTO START IN 20 SEC

DOWNLOAD AND ONLINE TERABOX LINK


MEDIAFIRE


MEGANZ

DWNLOAD AND ONLINE


ONLINE 720P

ONLINE 720P-360P=PART-1-TO-END

PART-1



















Post a Comment

0 Comments