Universal Soldier 1992 x264 720p Esub BluRay Dual Audio English Hindi THE GOPI SAHI

Universal Soldier (1992)

R 07/10/1992 (US) ThrillerActionScience FictionCrime 1h 42m

The future has a bad attitude.

Overview

An American soldier who had been killed during the Vietnam War is revived 25 years later by the military as a semi-android, UniSols, a high-tech soldier of the future. After the failure of the initiative to erase all the soldier's memories, he begins to experience flashbacks that are forcing him to recall his past. 

Directed byRoland Emmerich
Produced by
Written by
Starring
Music byChristopher Franke
CinematographyKarl Walter Lindenlaub
Edited byMichael J. Duthie
Production
companies
Distributed byTriStar Pictures
Release date
  • July 10, 1992
Running time
102 minutes
CountryUnited States
LanguageEnglish
Budget$23 million[1][2]
Box office$95 million



Universal Soldier 1992 x264 720p Esub BluRay Dual Audio English Hindi THE GOPI SAHI

Format                         : Matroska

Format version                 : Version 4

File size                      : 895 MiB

Duration                       : 1 h 43 min

Overall bit rate               : 1 206 kb/s

Movie name                     : Universal Soldier 1992 GOPISAHI

Encoded date                   : UTC 2019-10-11 12:52:41


Video

ID                             : 1

Format                         : AVC

Format/Info                    : Advanced Video Codec

Format profile                 : [email protected]

Format settings                : CABAC / 12 Ref Frames

Format settings, CABAC         : Yes

Format settings, Reference fra : 12 frames

Codec ID                       : V_MPEG4/ISO/AVC

Duration                       : 1 h 43 min

Bit rate                       : 899 kb/s

Width                          : 1 280 pixels

Height                         : 542 pixels

Display aspect ratio           : 2.35:1

Frame rate mode                : Constant

Frame rate                     : 23.976 (24000/1001) FPS

Color space                    : YUV

Chroma subsampling             : 4:2:0

Bit depth                      : 8 bits

Scan type                      : Progressive

Bits/(Pixel*Frame)             : 0.054

Stream size                    : 667 MiB (74%)

Title                          : GOPISAHI

Writing library                : x264 core 157 r2935 545de2f


Audio #1

ID                             : 2

Format                         : AAC LC

Format/Info                    : Advanced Audio Codec Low Complexity

Codec ID                       : A_AAC-2

Duration                       : 1 h 43 min

Bit rate                       : 96.0 kb/s

Channel(s)                     : 2 channels

Channel layout                 : L R

Sampling rate                  : 48.0 kHz

Frame rate                     : 46.875 FPS (1024 SPF)

Compression mode               : Lossy

Delay relative to video        : -21 ms

Stream size                    : 71.6 MiB (8%)

Title                          : GOPISAHI

Language                       : Hindi

Default                        : Yes

Forced                         : No


Audio #2

ID                             : 3

Format                         : AAC LC

Format/Info                    : Advanced Audio Codec Low Complexity

Codec ID                       : A_AAC-2

Duration                       : 1 h 43 min

Bit rate                       : 192 kb/s

Channel(s)                     : 6 channels

Channel layout                 : C L R Ls Rs LFE

Sampling rate                  : 48.0 kHz

Frame rate                     : 46.875 FPS (1024 SPF)

Compression mode               : Lossy

Delay relative to video        : -21 ms

Stream size                    : 143 MiB (16%)

Title                          : GOPISAHI

Language                       : English

Default                        : No

Forced                         : No


Text

ID                             : 4

Format                         : PGS

Muxing mode                    : zlib

Codec ID                       : S_HDMV/PGS

Codec ID/Info                  : Picture based subtitle format used on BDs/HD-DVDs

Duration                       : 1 h 36 min

Bit rate                       : 40.1 kb/s

Count of elements              : 1932

Stream size                    : 27.6 MiB (3%)

Title                          : GOPISAHI

Language                       : English

Default                        : Yes

Forced                         : No





MAGNET


TORRENT


TORRENT 2 480P AND 720P CHOOSE WHICH ONE DWONLOAD


GDRIVE FILE COPY


DWONLOAD AUTO START IN 20 SEC 


DOWNLOAD AND ONLINE TERABOX LINK = PASSWORD = qp3r


4 MOVIE 3.50 GB  DWONLOAD AUTO START IN 20 SEC ZIP FILE


MEDIAFIRE


DWNLOAD AND ONLINE


ONLINE 720P


Post a Comment

0 Comments