Universal Soldier 4 Day Of Reckoning 2012 x264 720p Esub BluRay Dual Audio English Hindi THE GOPI SAHI

Under their own command

Overview

After his wife and daughter are murdered in a home invasion, a widower named John now finds himself up against an army of Universal Soldiers in relentless pursuit, led by a mysterious leader who promises to set UniSols free from their conditioning.


Directed byJohn Hyams
Produced by
Written by
  • John Hyams
  • Doug Magnuson
  • Jon Greenlagh
Starring
Music by
CinematographyYaron Levy
Edited by
  • Andrew Drazek
  • John Hyams
Production
companies
  • BMP Productions
  • Signature Entertainment
Distributed by
Release date
  • August 23, 2012 (Hamburg Fantasy Film Festival)
  • October 25, 2012 (Video on Demand)
Running time
114 minutes
CountryUnited States
LanguageEnglish
Budget$8 million[1]
Box office$1.4 million[2]


Universal Soldier 4 Day Of Reckoning 2012 x264 720p Esub BluRay Dual Audio English Hindi THE GOPI SAHI


Format                         : Matroska

Format version                 : Version 4

File size                      : 1.02 GiB

Duration                       : 1 h 53 min

Overall bit rate               : 1 286 kb/s

Movie name                     : Universal Soldier 4 Day of Reckoning 2012 GOPISAHI

Encoded date                   : UTC 2019-10-11 12:54:37


Video

ID                             : 1

Format                         : AVC

Format/Info                    : Advanced Video Codec

Format profile                 : [email protected]

Format settings                : CABAC / 11 Ref Frames

Format settings, CABAC         : Yes

Format settings, Reference fra : 11 frames

Codec ID                       : V_MPEG4/ISO/AVC

Duration                       : 1 h 53 min

Bit rate                       : 899 kb/s

Width                          : 1 280 pixels

Height                         : 546 pixels

Display aspect ratio           : 2.35:1

Frame rate mode                : Constant

Frame rate                     : 23.976 (24000/1001) FPS

Color space                    : YUV

Chroma subsampling             : 4:2:0

Bit depth                      : 8 bits

Scan type                      : Progressive

Bits/(Pixel*Frame)             : 0.054

Stream size                    : 731 MiB (70%)

Title                          : GOPISAHI

Writing library                : x264 core 157 r2935 545de2f


Audio #1

ID                             : 2

Format                         : AAC LC

Format/Info                    : Advanced Audio Codec Low Complexity

Codec ID                       : A_AAC-2

Duration                       : 1 h 53 min

Bit rate                       : 192 kb/s

Channel(s)                     : 6 channels

Channel layout                 : C L R Ls Rs LFE

Sampling rate                  : 48.0 kHz

Frame rate                     : 46.875 FPS (1024 SPF)

Compression mode               : Lossy

Delay relative to video        : -21 ms

Stream size                    : 156 MiB (15%)

Title                          : GOPISAHI

Language                       : Hindi

Default                        : Yes

Forced                         : No


Audio #2

ID                             : 3

Format                         : AAC LC

Format/Info                    : Advanced Audio Codec Low Complexity

Codec ID                       : A_AAC-2

Duration                       : 1 h 53 min

Bit rate                       : 192 kb/s

Channel(s)                     : 6 channels

Channel layout                 : C L R Ls Rs LFE

Sampling rate                  : 48.0 kHz

Frame rate                     : 46.875 FPS (1024 SPF)

Compression mode               : Lossy

Delay relative to video        : -21 ms

Stream size                    : 156 MiB (15%)

Title                          : GOPISAHI

Language                       : English

Default                        : No

Forced                         : No





MAGNET


TORRENT


TORRENT 2 480P AND 720P CHOOSE WHICH ONE DWONLOAD


GDRIVE FILE COPY


DWONLOAD AUTO START IN 20 SEC 


DOWNLOAD AND ONLINE TERABOX LINK = PASSWORD = fp2a


4 MOVIE 3.50 GB DWONLOAD AUTO START IN 20 SEC ZIP FILE


MEDIAFIRE


DWNLOAD AND ONLINE


ONLINE 720P


Post a Comment

0 Comments