Universal Soldier Regeneration 2009 x264 720p Esub BluRay Dual Audio English Hindi THE GOPI SAHI

Reanimated. Rearmed. The ultimate rematch

Overview

When terrorists threaten nuclear catastrophe at Chernobyl, the world's only hope is to reactivate decommissioned Universal Soldier Luc Deveraux. Rearmed and reprogrammed, Deveraux must take on his nemesis from the original Universal Soldier and a next-generation "UniSol" that seems almost unstoppable.


Directed byJohn Hyams
Produced byCraig Baumgarten
Mark Damon
Moshe Diamant
Courtney Solomon
Written byVictor Ostrovsky
Based onCharacters created by
Richard Rothstein
Christopher Leitch
and Dean Devlin
StarringJean-Claude Van Damme
Dolph Lundgren
Andrei Arlovski
Mike Pyle
Garry Cooper
Corey Johnson
Kerry Shale
Aki Avni
Music byKris Hill
Michael Krassner
CinematographyPeter Hyams
Edited byJason Gallagher
John Hyams
Production
companies
Foresight Unlimited
Signature Pictures
Distributed bySony Pictures Home Entertainment
Release date
  • February 2, 2010 (official release in US — DVD and Blu-ray)
Running time
97 minutes
CountryUnited States
LanguageEnglish
Budget$9 million[1]
Box office$844,000[2]



Universal Soldier Regeneration 2009 x264 720p Esub BluRay Dual Audio English Hindi THE GOPI SAHI


Format                         : Matroska

Format version                 : Version 4

File size                      : 901 MiB

Duration                       : 1 h 36 min

Overall bit rate               : 1 299 kb/s

Movie name                     : Universal Soldier Regeneration 2009 GOPISAHI

Encoded date                   : UTC 2019-10-11 12:55:56


Video

ID                             : 1

Format                         : AVC

Format/Info                    : Advanced Video Codec

Format profile                 : [email protected]

Format settings                : CABAC / 12 Ref Frames

Format settings, CABAC         : Yes

Format settings, Reference fra : 12 frames

Codec ID                       : V_MPEG4/ISO/AVC

Duration                       : 1 h 36 min

Bit rate                       : 899 kb/s

Width                          : 1 280 pixels

Height                         : 544 pixels

Display aspect ratio           : 2.35:1

Frame rate mode                : Constant

Frame rate                     : 23.976 (24000/1001) FPS

Color space                    : YUV

Chroma subsampling             : 4:2:0

Bit depth                      : 8 bits

Scan type                      : Progressive

Bits/(Pixel*Frame)             : 0.054

Stream size                    : 623 MiB (69%)

Title                          : GOPISAHI

Writing library                : x264 core 157 r2935 545de2f


Audio #1

ID                             : 2

Format                         : AAC LC

Format/Info                    : Advanced Audio Codec Low Complexity

Codec ID                       : A_AAC-2

Duration                       : 1 h 36 min

Bit rate                       : 192 kb/s

Channel(s)                     : 6 channels

Channel layout                 : C L R Ls Rs LFE

Sampling rate                  : 48.0 kHz

Frame rate                     : 46.875 FPS (1024 SPF)

Compression mode               : Lossy

Delay relative to video        : 129 ms

Stream size                    : 133 MiB (15%)

Title                          : GOPISAHI

Language                       : Hindi

Default                        : Yes

Forced                         : No


Audio #2

ID                             : 3

Format                         : AAC LC

Format/Info                    : Advanced Audio Codec Low Complexity

Codec ID                       : A_AAC-2

Duration                       : 1 h 36 min

Bit rate                       : 192 kb/s

Channel(s)                     : 6 channels

Channel layout                 : C L R Ls Rs LFE

Sampling rate                  : 48.0 kHz

Frame rate                     : 46.875 FPS (1024 SPF)

Compression mode               : Lossy

Delay relative to video        : -21 ms

Stream size                    : 133 MiB (15%)

Title                          : GOPISAHI

Language                       : English

Default                        : No

Forced                         : No


Text

ID                             : 4

Format                         : PGS

Muxing mode                    : zlib

Codec ID                       : S_HDMV/PGS

Codec ID/Info                  : Picture based subtitle format used on BDs/HD-DVDs

Duration                       : 1 h 18 min

Bit rate                       : 36.5 kb/s

Count of elements              : 1138

Stream size                    : 20.5 MiB (2%)

Title                          : GOPISAHI

Language                       : English

Default                        : Yes

Forced                         : No




MAGNET


TORRENT


TORRENT 2 480P AND 720P CHOOSE WHICH ONE DWONLOAD


GDRIVE FILE COPY


DWONLOAD AUTO START IN 20 SEC 


DOWNLOAD AND ONLINE TERABOX LINK = PASSWORD = h836


4 MOVIE 3.50 GB DWONLOAD AUTO START IN 20 SEC ZIP FILE


MEDIAFIRE


DWNLOAD AND ONLINE


ONLINE 720P


Post a Comment

0 Comments