Zootropolis 2016 x264 1080p Esub English Hindi Telugu Tamil THE GOPI SAHI

 

Zootopia (2016)

PG 03/04/2016 (US) AnimationAdventureFamilyComedy 1h 49m 
 

Welcome to the urban jungle.

Overview

Determined to prove herself, Officer Judy Hopps, the first bunny on Zootopia's police force, jumps at the chance to crack her first case - even if it means partnering with scam-artist fox Nick Wilde to solve the mystery.

Directed by
Produced byClark Spencer
Screenplay by
Story by
Starring
Music byMichael Giacchino
Cinematography
  • Nathan Warner (layout)
  • Brian Leach (lighting)
Edited by
  • Fabienne Rawley
  • Jeremy Milton
Production
companies
Distributed byWalt Disney Studios
Motion Pictures
Release date
  • February 13, 2016 (Belgium)
  • March 4, 2016 (United States)
Running time
108 minutes[2][3]
CountryUnited States
LanguageEnglish
Budget$150 million[4]
Box office$1.024 billion[5]

 

 

Zootropolis 2016 x264 1080p Esub English Hindi Telugu Tamil THE GOPI SAHI


Format                         : Matroska
Format version                 : Version 4
File size                      : 1.43 GiB
Duration                       : 1 h 44 min
Overall bit rate               : 1 972 kb/s
Movie name                     : Zootropolis 2016 GOPI SAHI
Encoded date                   : UTC 2021-06-20 16:27:55

Video
ID                             : 1
Format                         : AVC
Format/Info                    : Advanced Video Codec
Format profile                 : [email protected]
Format settings                : CABAC / 4 Ref Frames
Format settings, CABAC         : Yes
Format settings, Reference fra : 4 frames
Codec ID                       : V_MPEG4/ISO/AVC
Duration                       : 1 h 44 min
Bit rate                       : 1 581 kb/s
Width                          : 1 920 pixels
Height                         : 1 080 pixels
Display aspect ratio           : 16:9
Frame rate mode                : Constant
Frame rate                     : 25.000 FPS
Color space                    : YUV
Chroma subsampling             : 4:2:0
Bit depth                      : 8 bits
Scan type                      : Progressive
Bits/(Pixel*Frame)             : 0.030
Stream size                    : 1.15 GiB (80%)
Title                          : GOPI SAHI
Writing library                : x264 core 155 r2917 0a84d98

Audio #1
ID                             : 2
Format                         : E-AC-3
Format/Info                    : Enhanced AC-3
Commercial name                : Dolby Digital Plus
Codec ID                       : A_EAC3
Duration                       : 1 h 44 min
Bit rate mode                  : Constant
Bit rate                       : 192 kb/s
Channel(s)                     : 6 channels
Channel layout                 : L R C LFE Ls Rs
Sampling rate                  : 48.0 kHz
Frame rate                     : 31.250 FPS (1536 SPF)
Compression mode               : Lossy
Stream size                    : 143 MiB (10%)
Title                          : GOPI SAHI
Language                       : English
Service kind                   : Complete Main
Default                        : Yes
Forced                         : No

Audio #2
ID                             : 3
Format                         : AAC LC
Format/Info                    : Advanced Audio Codec Low Complexity
Codec ID                       : A_AAC-2
Duration                       : 1 h 43 min
Bit rate                       : 64.5 kb/s
Channel(s)                     : 2 channels
Channel layout                 : L R
Sampling rate                  : 48.0 kHz
Frame rate                     : 46.875 FPS (1024 SPF)
Compression mode               : Lossy
Stream size                    : 47.8 MiB (3%)
Title                          : GOPI SAHI
Language                       : Hindi
Default                        : No
Forced                         : No

Audio #3
ID                             : 4
Format                         : AAC LC
Format/Info                    : Advanced Audio Codec Low Complexity
Codec ID                       : A_AAC-2
Duration                       : 1 h 44 min
Bit rate                       : 64.5 kb/s
Channel(s)                     : 2 channels
Channel layout                 : L R
Sampling rate                  : 48.0 kHz
Frame rate                     : 46.875 FPS (1024 SPF)
Compression mode               : Lossy
Stream size                    : 48.0 MiB (3%)
Title                          : GOPI SAHI
Language                       : Tamil
Default                        : No
Forced                         : No

Audio #4
ID                             : 5
Format                         : AAC LC
Format/Info                    : Advanced Audio Codec Low Complexity
Codec ID                       : A_AAC-2
Duration                       : 1 h 44 min
Bit rate                       : 64.3 kb/s
Channel(s)                     : 2 channels
Channel layout                 : L R
Sampling rate                  : 48.0 kHz
Frame rate                     : 46.875 FPS (1024 SPF)
Compression mode               : Lossy
Stream size                    : 47.8 MiB (3%)
Title                          : GOPI SAHI
Language                       : Telugu
Default                        : No
Forced                         : No

Text
ID                             : 6
Format                         : S_TEXT/WEBVTT
Codec ID                       : S_TEXT/WEBVTT
Duration                       : 1 h 34 min
Bit rate                       : 88 b/s
Count of elements              : 1861
Stream size                    : 61.2 KiB (0%)
Title                          : GOPI SAHI
Language                       : English
Default                        : Yes
Forced                         : No

 

MAGNET

TORRENT

TORRENT 2 480P AND 1080P CHOOSE WHICH ONE DWONLOAD

GDRIVE FILE COPY

DWONLOAD AUTO START IN 20 SEC

DOWNLOAD AND ONLINE TERABOX LINK

DWONLOAD AUTO START IN 20 SEC ZIP FILE

MEDIAFIRE

MEGANZ

RU

DWNLOAD AND ONLINE

ONLINE 720P

ONLINE 720P-360P=PART-1-TO-END

PART-1













Post a Comment

0 Comments