Bartkowiak 2021 x264 720p WebHD Esub English Hindi THE GOPI SAHI

Bartkowiak (2021)

07/28/2021 (US) ActionThriller 1h 31m 

Overview

We don't have an overview translated in English. Help us expand our database by adding one.

 

 https://1.bp.blogspot.com/-Cy2owJToNm4/YQEuT39JopI/AAAAAAABICQ/vjVQuOvbSJ0-xCxy1nSn_AfY3KwRBGTVACNcBGAsYHQ/s777/Bartkowiak%2B2021%2Bx264%2B1080p%2BWebHD%2BEsub%2BEnglish%2BHindi%2BTHE%2BGOPI%2BSAHI.png

 

Bartkowiak 2021 x264 720p WebHD Esub English Hindi THE GOPI SAHI


Format                         : Matroska
Format version                 : Version 4
File size                      : 846 MiB
Duration                       : 1 h 32 min
Overall bit rate               : 1 281 kb/s
Movie name                     : Bartkowiak 2021 GOPI SAHI
Encoded date                   : UTC 2021-07-28 15:50:35

Video
ID                             : 1
Format                         : AVC
Format/Info                    : Advanced Video Codec
Format profile                 : [email protected]
Format settings                : CABAC / 5 Ref Frames
Format settings, CABAC         : Yes
Format settings, Reference fra : 5 frames
Codec ID                       : V_MPEG4/ISO/AVC
Duration                       : 1 h 32 min
Bit rate                       : 899 kb/s
Width                          : 1 280 pixels
Height                         : 536 pixels
Display aspect ratio           : 2.40:1
Frame rate mode                : Constant
Frame rate                     : 25.000 FPS
Color space                    : YUV
Chroma subsampling             : 4:2:0
Bit depth                      : 8 bits
Scan type                      : Progressive
Bits/(Pixel*Frame)             : 0.052
Stream size                    : 594 MiB (70%)
Title                          : GOPI SAHI
Writing library                : x264 core 157 r2935 545de2f

Audio #1
ID                             : 2
Format                         : AAC LC
Format/Info                    : Advanced Audio Codec Low Complexity
Codec ID                       : A_AAC-2
Duration                       : 1 h 32 min
Bit rate                       : 192 kb/s
Channel(s)                     : 6 channels
Channel layout                 : C L R Ls Rs LFE
Sampling rate                  : 48.0 kHz
Frame rate                     : 46.875 FPS (1024 SPF)
Compression mode               : Lossy
Delay relative to video        : -21 ms
Stream size                    : 125 MiB (15%)
Title                          : GOPI SAHI
Language                       : Hindi
Default                        : Yes
Forced                         : No

Audio #2
ID                             : 3
Format                         : AAC LC
Format/Info                    : Advanced Audio Codec Low Complexity
Codec ID                       : A_AAC-2
Duration                       : 1 h 32 min
Bit rate                       : 192 kb/s
Channel(s)                     : 6 channels
Channel layout                 : C L R Ls Rs LFE
Sampling rate                  : 48.0 kHz
Frame rate                     : 46.875 FPS (1024 SPF)
Compression mode               : Lossy
Delay relative to video        : -21 ms
Stream size                    : 125 MiB (15%)
Title                          : GOPI SAHI
Language                       : English
Default                        : No
Forced                         : No

Text
ID                             : 4
Format                         : UTF-8
Codec ID                       : S_TEXT/UTF8
Codec ID/Info                  : UTF-8 Plain Text
Duration                       : 1 h 26 min
Bit rate                       : 35 b/s
Count of elements              : 728
Stream size                    : 22.1 KiB (0%)
Title                          : GOPI SAHI
Language                       : English
Default                        : Yes
Forced                         : No



 

 MAGNET

TORRENT

TORRENT 2 PRIVATE


G-DRIVE FILE COPY

DOWNLOAD AUTO START IN 20 SEC

DOWNLOAD AND ONLINE TERA-BOX LINK

MEDIA-FIRE


DROPBOX

MEGA NZ

DOSYA

MAILRU

DOWNLOAD AND ONLINE

ONLINE 720P


Post a Comment

1 Comments

  1. I don't know who is dubbing hero but he is the best. So natural dubbing. I hope he could get a leading role in some Bollywood movies

    ReplyDelete

No Except Any Movie Request Here,Try To Donate Money For Website Then Request, If You No Donate Way Post Request Here ,Nonprofit Services, No Ads, No Any Earning, If Download Link Not Work Post a Comment On Movie Page For Re-upload, Post a Comment On Any Movie Page If You Donate For This Website, Thanks Keep Support. Any Torrent-Magnet Not Reseed,Seed Only First 30 Days,Then Use Google Drive For Download.