Battle for Sevastopol 2015 x264 720p Esub BluRay Russian Hindi THE GOPI SAHI

 

Battle for Sevastopol (2015)

12+ 04/18/2015 (US) DramaWarRomance 1h 50m 
 

One Woman Who Changed The World

Overview

A story of Lyudmila Pavlichenko, the most successful female sniper in history.

Directed bySergey Mokritskiy
Written by
  • Maksim Budarin
  • Maksim Dankevich
  • Leonid Korin
  • Egor Olesov
Produced by
  • Natalia Mokritskaya
  • Egor Olesov
Starring
CinematographyYury Korol'
Music byEvgeniy Galperin
Distributed by20th Century Fox
Release date
  • April 2, 2015 (Russia)
Running time
122 minutes
Countries
  • Russia
  • Ukraine
LanguagesRussian
Ukrainian (dubbed)
English (dubbed)
Spanish (dubbed)

 


 

Battle for Sevastopol 2015 x264 720p Esub BluRay Russian Hindi THE GOPI SAHI

Format                         : Matroska
Format version                 : Version 4
File size                      : 876 MiB
Duration                       : 2 h 2 min
Overall bit rate               : 997 kb/s
Movie name                     : Battle for Sevastopol 2015 Russian GOPI SAHI
Encoded date                   : UTC 2021-07-31 10:32:00

Video
ID                             : 1
Format                         : AVC
Format/Info                    : Advanced Video Codec
Format profile                 : [email protected]
Format settings                : CABAC / 5 Ref Frames
Format settings, CABAC         : Yes
Format settings, Reference fra : 5 frames
Codec ID                       : V_MPEG4/ISO/AVC
Duration                       : 2 h 2 min
Bit rate                       : 899 kb/s
Width                          : 1 280 pixels
Height                         : 534 pixels
Display aspect ratio           : 2.40:1
Frame rate mode                : Constant
Frame rate                     : 24.000 FPS
Color space                    : YUV
Chroma subsampling             : 4:2:0
Bit depth                      : 8 bits
Scan type                      : Progressive
Bits/(Pixel*Frame)             : 0.055
Stream size                    : 790 MiB (90%)
Writing library                : x264 core 157 r2935 545de2f

Audio
ID                             : 2
Format                         : AAC LC
Format/Info                    : Advanced Audio Codec Low Complexity
Codec ID                       : A_AAC-2
Duration                       : 2 h 2 min
Bit rate                       : 96.0 kb/s
Channel(s)                     : 2 channels
Channel layout                 : L R
Sampling rate                  : 48.0 kHz
Frame rate                     : 46.875 FPS (1024 SPF)
Compression mode               : Lossy
Delay relative to video        : -21 ms
Stream size                    : 84.5 MiB (10%)
Title                          : GOPI SAHI
Language                       : Hindi
Default                        : Yes
Forced                         : No

Text
ID                             : 3
Format                         : UTF-8
Codec ID                       : S_TEXT/UTF8
Codec ID/Info                  : UTF-8 Plain Text
Duration                       : 1 h 57 min
Bit rate                       : 38 b/s
Count of elements              : 959
Stream size                    : 33.2 KiB (0%)
Title                          : GOPI SAHI
Language                       : English
Default                        : Yes
Forced                         : No

Menu
00:00:00.000                   : :Chapter 1
00:10:09.042                   : :Chapter 2
00:18:13.333                   : :Chapter 3
00:26:37.292                   : :Chapter 4
00:36:05.375                   : :Chapter 5
00:46:11.250                   : :Chapter 6
00:53:33.833                   : :Chapter 7
01:02:41.542                   : :Chapter 8
01:13:44.042                   : :Chapter 9
01:21:31.250                   : :Chapter 10
01:30:22.833                   : :Chapter 11
01:43:18.417                   : :Chapter 12
01:59:19.917                   : :Chapter 13
02:02:49.667                   : :Chapter 14




 

 MAGNET

TORRENT


TORRENT 2 PRIVATE

G-DRIVE FILE COPY

DOWNLOAD AUTO START IN 20 SEC


DOWNLOAD AND ONLINE TERA-BOX LINK


MEDIA-FIRE

DROPBOX

MEGA NZ


DOSYA

MAILRU


DOWNLOAD AND ONLINE

ONLINE 720P

 

Post a Comment

0 Comments