Collar Bomb 2021 x264 720p WebHD Esub Hindi THE GOPI SAHI


 

Collar Bomb (2021)

07/09/2021 (IN) CrimeThriller 1h 26m 
 

Overview

A celebrated cop is forced to commit crimes before a suicide bomber blows up a school. As he races against time, the idyllic town around him descends into chaos.

 


Collar Bomb 2021 x264 720p WebHD Esub Hindi THE GOPI SAHI


Format                         : Matroska
Format version                 : Version 4
File size                      : 675 MiB
Duration                       : 1 h 26 min
Overall bit rate               : 1 091 kb/s
Movie name                     : Collar Bomb 2021 GOPI SAHI
Encoded date                   : UTC 2021-07-09 23:44:08

Video
ID                             : 1
Format                         : AVC
Format/Info                    : Advanced Video Codec
Format profile                 : [email protected]
Format settings                : CABAC / 5 Ref Frames
Format settings, CABAC         : Yes
Format settings, Reference fra : 5 frames
Codec ID                       : V_MPEG4/ISO/AVC
Duration                       : 1 h 26 min
Bit rate                       : 899 kb/s
Width                          : 1 280 pixels
Height                         : 690 pixels
Display aspect ratio           : 1.85:1
Frame rate mode                : Constant
Frame rate                     : 24.000 FPS
Color space                    : YUV
Chroma subsampling             : 4:2:0
Bit depth                      : 8 bits
Scan type                      : Progressive
Bits/(Pixel*Frame)             : 0.042
Stream size                    : 555 MiB (82%)
Title                          : GOPI SAHI
Writing library                : x264 core 157 r2935 545de2f

Audio
ID                             : 2
Format                         : AAC LC
Format/Info                    : Advanced Audio Codec Low Complexity
Codec ID                       : A_AAC-2
Duration                       : 1 h 26 min
Bit rate                       : 192 kb/s
Channel(s)                     : 6 channels
Channel layout                 : C L R Ls Rs LFE
Sampling rate                  : 48.0 kHz
Frame rate                     : 46.875 FPS (1024 SPF)
Compression mode               : Lossy
Delay relative to video        : -21 ms
Stream size                    : 118 MiB (18%)
Title                          : GOPI SAHI
Language                       : Hindi
Default                        : Yes
Forced                         : No

Text
ID                             : 3
Format                         : UTF-8
Codec ID                       : S_TEXT/UTF8
Codec ID/Info                  : UTF-8 Plain Text
Duration                       : 1 h 21 min
Bit rate                       : 50 b/s
Count of elements              : 1029
Stream size                    : 30.5 KiB (0%)
Language                       : English
Default                        : Yes
Forced                         : No




MAGNET


TORRENT


TORRENT 2 PRIVATE

GDRIVE FILE COPY

DWONLOAD AUTO START IN 20 SEC


DOWNLOAD AND ONLINE TERABOX LINK

MEDIAFIRE

MEGANZ

DWNLOAD AND ONLINE

ONLINE 720P

 

Post a Comment

0 Comments