Dark City 1998 DC x264 720p Esub BluRay Dual Audio English Hindi THE GOPI SAHI

 

Dark City (1998)

R 02/27/1998 (US) MysteryScience Fiction 1h 40m 
 

A world where the night never ends.

Overview

A man struggles with memories of his past, including a wife he cannot remember, in a nightmarish world with no sun and run by beings with telekinetic powers who seek the souls of humans.

Directed byAlex Proyas
Produced by
  • Andrew Mason
  • Alex Proyas
Screenplay by
Story byAlex Proyas
Starring
Music byTrevor Jones
CinematographyDariusz Wolski
Edited byDov Hoenig
Production
company
Mystery Clock Cinema
Distributed byNew Line Cinema
Release date
  • 27 February 1998
Running time
100 minutes[1]
Countries
  • United States
  • Australia
LanguageEnglish
Budget$27 million[2]
Box office$27.2 million[3]

 


Dark City 1998 DC x264 720p Esub BluRay Dual Audio English Hindi THE GOPI SAHI


Format                         : Matroska
Format version                 : Version 4
File size                      : 1.05 GiB
Duration                       : 1 h 51 min
Overall bit rate               : 1 348 kb/s
Movie name                     : Dark City 1998 DC GOPI SAHI
Encoded date                   : UTC 2021-07-09 14:14:23

Video
ID                             : 1
Format                         : AVC
Format/Info                    : Advanced Video Codec
Format profile                 : [email protected]
Format settings                : CABAC / 5 Ref Frames
Format settings, CABAC         : Yes
Format settings, Reference fra : 5 frames
Codec ID                       : V_MPEG4/ISO/AVC
Duration                       : 1 h 51 min
Bit rate                       : 899 kb/s
Width                          : 1 280 pixels
Height                         : 548 pixels
Display aspect ratio           : 2.35:1
Frame rate mode                : Constant
Frame rate                     : 23.976 (24000/1001) FPS
Color space                    : YUV
Chroma subsampling             : 4:2:0
Bit depth                      : 8 bits
Scan type                      : Progressive
Bits/(Pixel*Frame)             : 0.053
Stream size                    : 718 MiB (67%)
Title                          : GOPI SAHI
Writing library                : x264 core 157 r2935 545de2f

Audio #1
ID                             : 2
Format                         : AAC LC
Format/Info                    : Advanced Audio Codec Low Complexity
Codec ID                       : A_AAC-2
Duration                       : 1 h 51 min
Bit rate                       : 192 kb/s
Channel(s)                     : 6 channels
Channel layout                 : C L R Ls Rs LFE
Sampling rate                  : 44.1 kHz
Frame rate                     : 43.066 FPS (1024 SPF)
Compression mode               : Lossy
Delay relative to video        : -23 ms
Stream size                    : 152 MiB (14%)
Title                          : GOPI SAHI
Language                       : Hindi
Default                        : Yes
Forced                         : No

Audio #2
ID                             : 3
Format                         : AAC LC
Format/Info                    : Advanced Audio Codec Low Complexity
Codec ID                       : A_AAC-2
Duration                       : 1 h 51 min
Bit rate                       : 256 kb/s
Channel(s)                     : 8 channels
Channel layout                 : C L R Ls Rs Lw Rw LFE
Sampling rate                  : 48.0 kHz
Frame rate                     : 46.875 FPS (1024 SPF)
Compression mode               : Lossy
Delay relative to video        : -21 ms
Stream size                    : 205 MiB (19%)
Title                          : GOPI SAHI
Language                       : English
Default                        : No
Forced                         : No

Text
ID                             : 4
Format                         : UTF-8
Codec ID                       : S_TEXT/UTF8
Codec ID/Info                  : UTF-8 Plain Text
Duration                       : 1 h 49 min
Bit rate                       : 45 b/s
Count of elements              : 1281
Stream size                    : 36.4 KiB (0%)
Title                          : GOPI SAHI
Language                       : English
Default                        : Yes
Forced                         : No

Menu
00:00:00.000                   : :(безымянный)
00:05:00.008                   : :(безымянный)
00:10:00.183                   : :(безымянный)
00:15:00.191                   : :(безымянный)
00:20:00.032                   : :(безымянный)
00:25:00.040                   : :(безымянный)
00:30:00.173                   : :(безымянный)
00:35:00.015                   : :(безымянный)
00:40:00.023                   : :(безымянный)
00:45:00.114                   : :(безымянный)
00:50:00.164                   : :(безымянный)
00:55:00.130                   : :(безымянный)
01:00:00.013                   : :(безымянный)
01:05:00.105                   : :(безымянный)
01:10:00.029                   : :(безымянный)
01:15:00.121                   : :(безымянный)
01:20:00.004                   : :(безымянный)
01:25:00.012                   : :(безымянный)
01:30:00.103                   : :(безымянный)
01:35:00.111                   : :(безымянный)
01:40:00.036                   : :(безымянный)
01:45:00.002                   : :(безымянный)
01:50:00.135                   : :(безымянный)




 MAGNET

TORRENT

TORRENT 2 PRIVATE

GDRIVE FILE COPY

DWONLOAD AUTO START IN 20 SEC


DOWNLOAD AND ONLINE TERABOX LINK

MEDIAFIRE

MEGANZ


DWNLOAD AND ONLINE


ONLINE 720P

 

Post a Comment

0 Comments