El Gringo 2012 x264 720p BluRay Dual Audio English Hindi THE GOPI SAHI

 

El Gringo (2012)

R 05/10/2012 (US) AdventureDramaActionThriller 1h 38m 
 

Overview

A man crossing into Mexico with a satchel of $2,000,000—and a bloody past—finds himself under sudden attack in the sleepy town of El Fronteras.

Directed byEduardo Rodríguez
Written byJonathan Stokes
Produced by
Starring
CinematographyYaron Levy
Edited by
  • Don Adams
  • Harold Parker
  • Eduardo Rodriguez
Music byLuis Ascanio
Production
companies
Distributed byAfter Dark Films
G2 Pictures
Tanweer Films
Release date
  • May 11, 2012
Running time
102 minutes
CountryUnited States
LanguagesEnglish
Spanish
Budget$7 million[1]



El Gringo 2012 x264 720p BluRay Dual Audio English Hindi THE GOPI SAHI

Format                         : Matroska
Format version                 : Version 4
File size                      : 841 MiB
Duration                       : 1 h 38 min
Overall bit rate               : 1 190 kb/s
Movie name                     : El Gringo 2012 GOPI SAHI
Encoded date                   : UTC 2021-07-31 08:16:13

Video
ID                             : 1
Format                         : AVC
Format/Info                    : Advanced Video Codec
Format profile                 : [email protected]
Format settings                : CABAC / 5 Ref Frames
Format settings, CABAC         : Yes
Format settings, Reference fra : 5 frames
Codec ID                       : V_MPEG4/ISO/AVC
Duration                       : 1 h 38 min
Bit rate                       : 899 kb/s
Width                          : 1 280 pixels
Height                         : 544 pixels
Display aspect ratio           : 2.35:1
Frame rate mode                : Constant
Frame rate                     : 23.976 (24000/1001) FPS
Color space                    : YUV
Chroma subsampling             : 4:2:0
Bit depth                      : 8 bits
Scan type                      : Progressive
Bits/(Pixel*Frame)             : 0.054
Stream size                    : 635 MiB (76%)
Title                          : GOPI SAHI
Writing library                : x264 core 157 r2935 545de2f

Audio #1
ID                             : 2
Format                         : AAC LC
Format/Info                    : Advanced Audio Codec Low Complexity
Codec ID                       : A_AAC-2
Duration                       : 1 h 38 min
Bit rate                       : 96.0 kb/s
Channel(s)                     : 2 channels
Channel layout                 : L R
Sampling rate                  : 48.0 kHz
Frame rate                     : 46.875 FPS (1024 SPF)
Compression mode               : Lossy
Delay relative to video        : -21 ms
Stream size                    : 68.1 MiB (8%)
Title                          : GOPI SAHI
Language                       : Hindi
Default                        : Yes
Forced                         : No

Audio #2
ID                             : 3
Format                         : AAC LC
Format/Info                    : Advanced Audio Codec Low Complexity
Codec ID                       : A_AAC-2
Duration                       : 1 h 38 min
Bit rate                       : 192 kb/s
Channel(s)                     : 6 channels
Channel layout                 : C L R Ls Rs LFE
Sampling rate                  : 48.0 kHz
Frame rate                     : 46.875 FPS (1024 SPF)
Compression mode               : Lossy
Delay relative to video        : -21 ms
Stream size                    : 136 MiB (16%)
Title                          : GOPI SAHI
Language                       : English
Default                        : No
Forced                         : No





 MAGNET

TORRENT

TORRENT 2 PRIVATE

G-DRIVE FILE COPY

DOWNLOAD AUTO START IN 20 SEC

DOWNLOAD AND ONLINE TERA-BOX LINK

MEDIA-FIRE

DROPBOX

MEGA NZ

DOSYA

MAILRU

DOWNLOAD AND ONLINE

ONLINE 720P

 

Post a Comment

0 Comments