Fear Street Part 1 1994 2021 x264 720p Esub BluRay Dual Audio English Hindi THE GOPI SAHI

 

Fear Street Part One: 1994 (2021)

R 07/02/2021 (IN) HorrorMystery 1h 47m 
 

Face the evil.

Overview

In 1994, a group of teenagers discovers that the terrifying events which have haunted their town for generations ​are all connected — and that they may be the next targets.

 


 

Fear Street Part 1 1994 2021 x264 720p Esub BluRay Dual Audio English Hindi THE GOPI SAHI

Format                         : Matroska
Format version                 : Version 4
File size                      : 972 MiB
Duration                       : 1 h 47 min
Overall bit rate               : 1 267 kb/s
Movie name                     : Fear Street Part 1 1994 2021 GOPI SAHI
Encoded date                   : UTC 2021-07-05 01:16:42

Video
ID                             : 1
Format                         : AVC
Format/Info                    : Advanced Video Codec
Format profile                 : [email protected]
Format settings                : CABAC / 5 Ref Frames
Format settings, CABAC         : Yes
Format settings, Reference fra : 5 frames
Codec ID                       : V_MPEG4/ISO/AVC
Duration                       : 1 h 45 min
Bit rate                       : 899 kb/s
Width                          : 1 280 pixels
Height                         : 536 pixels
Display aspect ratio           : 2.40:1
Frame rate mode                : Constant
Frame rate                     : 24.000 FPS
Color space                    : YUV
Chroma subsampling             : 4:2:0
Bit depth                      : 8 bits
Scan type                      : Progressive
Bits/(Pixel*Frame)             : 0.055
Stream size                    : 679 MiB (70%)
Title                          : GOPI SAHI
Writing library                : x264 core 157 r2935 545de2ft

Audio #1
ID                             : 2
Format                         : AAC LC
Format/Info                    : Advanced Audio Codec Low Complexity
Codec ID                       : A_AAC-2
Duration                       : 1 h 47 min
Bit rate                       : 192 kb/s
Channel(s)                     : 6 channels
Channel layout                 : C L R Ls Rs LFE
Sampling rate                  : 48.0 kHz
Frame rate                     : 46.875 FPS (1024 SPF)
Compression mode               : Lossy
Delay relative to video        : -21 ms
Stream size                    : 145 MiB (15%)
Title                          : GOPI SAHI
Language                       : Hindi
Default                        : Yes
Forced                         : No

Audio #2
ID                             : 3
Format                         : AAC LC
Format/Info                    : Advanced Audio Codec Low Complexity
Codec ID                       : A_AAC-2
Duration                       : 1 h 47 min
Bit rate                       : 192 kb/s
Channel(s)                     : 6 channels
Channel layout                 : C L R Ls Rs LFE
Sampling rate                  : 48.0 kHz
Frame rate                     : 46.875 FPS (1024 SPF)
Compression mode               : Lossy
Delay relative to video        : -21 ms
Stream size                    : 145 MiB (15%)
Title                          : GOPI SAHI
Language                       : English
Default                        : No
Forced                         : No

Text
ID                             : 4
Format                         : UTF-8
Codec ID                       : S_TEXT/UTF8
Codec ID/Info                  : UTF-8 Plain Text
Duration                       : 1 h 43 min
Bit rate                       : 87 b/s
Count of elements              : 1671
Stream size                    : 66.1 KiB (0%)
Title                          : GOPI SAHI
Language                       : English
Default                        : Yes
Forced                         : No




 MAGNET

TORRENT

TORRENT 2 PRIVATE

GDRIVE FILE COPY


DWONLOAD AUTO START IN 20 SEC


DOWNLOAD AND ONLINE TERABOX LINK


MEDIAFIRE

MEGANZ

DWNLOAD AND ONLINE


ONLINE 720P

 

Post a Comment

0 Comments