Gangster Squad 2013 x264 720p Esub BluRay Dual Audio English Hindi THE GOPI SAHI

Gangster Squad (2013)

R 01/11/2013 (US) CrimeDramaActionThriller 1h 53m 
 

No Names. No Badges. No Mercy.

Overview

Los Angeles, 1949. Ruthless, Brooklyn-born mob king Mickey Cohen runs the show in this town, reaping the ill-gotten gains from the drugs, the guns, the prostitutes and — if he has his way — every wire bet placed west of Chicago. And he does it all with the protection of not only his own paid goons, but also the police and the politicians who are under his control. It’s enough to intimidate even the bravest, street-hardened cop… except, perhaps, for the small, secret crew of LAPD outsiders led by Sgt. John O’Mara and Jerry Wooters who come together to try to tear Cohen’s world apart.

Directed byRuben Fleischer
Produced by
Written byWill Beall
Based onGangster Squad
by Paul Lieberman
Starring
Music bySteve Jablonsky
CinematographyDion Beebe
Edited by
Production
companies
Distributed byWarner Bros. Pictures
Release date
Running time
113 minutes[2]
CountryUnited States
LanguageEnglish
Budget$60 million[3][4]
Box office$105.2 million[4]


Gangster Squad 2013 x264 720p Esub BluRay Dual Audio English Hindi THE GOPI SAHI

Format                         : Matroska
Format version                 : Version 4
File size                      : 973 MiB
Duration                       : 1 h 52 min
Overall bit rate               : 1 204 kb/s
Movie name                     : Gangster Squad 2013 GOPI SAHI
Encoded date                   : UTC 2021-07-06 08:40:39

Video
ID                             : 1
Format                         : AVC
Format/Info                    : Advanced Video Codec
Format profile                 : [email protected]
Format settings                : CABAC / 5 Ref Frames
Format settings, CABAC         : Yes
Format settings, Reference fra : 5 frames
Codec ID                       : V_MPEG4/ISO/AVC
Duration                       : 1 h 52 min
Bit rate                       : 899 kb/s
Width                          : 1 280 pixels
Height                         : 534 pixels
Display aspect ratio           : 2.40:1
Frame rate mode                : Constant
Frame rate                     : 23.976 (24000/1001) FPS
Color space                    : YUV
Chroma subsampling             : 4:2:0
Bit depth                      : 8 bits
Scan type                      : Progressive
Bits/(Pixel*Frame)             : 0.055
Stream size                    : 726 MiB (75%)
Title                          : GOPI SAHI
Writing library                : x264 core 157 r2935 545de2f

Audio #1
ID                             : 2
Format                         : AAC LC
Format/Info                    : Advanced Audio Codec Low Complexity
Codec ID                       : A_AAC-2
Duration                       : 1 h 52 min
Bit rate                       : 96.0 kb/s
Channel(s)                     : 2 channels
Channel layout                 : L R
Sampling rate                  : 44.1 kHz
Frame rate                     : 43.066 FPS (1024 SPF)
Compression mode               : Lossy
Delay relative to video        : -23 ms
Stream size                    : 77.7 MiB (8%)
Title                          : GOPI SAHI
Language                       : Hindi
Default                        : Yes
Forced                         : No

Audio #2
ID                             : 3
Format                         : AAC LC
Format/Info                    : Advanced Audio Codec Low Complexity
Codec ID                       : A_AAC-2
Duration                       : 1 h 52 min
Bit rate                       : 192 kb/s
Channel(s)                     : 6 channels
Channel layout                 : C L R Ls Rs LFE
Sampling rate                  : 48.0 kHz
Frame rate                     : 46.875 FPS (1024 SPF)
Compression mode               : Lossy
Delay relative to video        : -21 ms
Stream size                    : 155 MiB (16%)
Title                          : GOPI SAHI
Language                       : English
Default                        : No
Forced                         : No

Text
ID                             : 4
Format                         : PGS
Muxing mode                    : zlib
Codec ID                       : S_HDMV/PGS
Codec ID/Info                  : Picture based subtitle format used on BDs/HD-DVDs
Duration                       : 1 h 52 min
Bit rate                       : 32.2 kb/s
Count of elements              : 2880
Stream size                    : 25.9 MiB (3%)
Title                          : GOPI SAHI
Language                       : English
Default                        : Yes
Forced                         : Yes

Menu
00:00:00.000                   : :Chapter 1
00:09:53.802                   : :Chapter 2
00:20:51.333                   : :Chapter 3
00:28:36.340                   : :Chapter 4
00:39:22.986                   : :Chapter 5
00:49:25.588                   : :Chapter 6
00:59:59.387                   : :Chapter 7
01:09:23.660                   : :Chapter 8
01:20:05.509                   : :Chapter 9
01:31:01.748                   : :Chapter 10
01:38:50.341                   : :Chapter 11
01:44:11.579                   : :Chapter 12







Post a Comment

0 Comments