Gone Baby Gone 2007 x264 720p WebHD Esub English Hindi THE GOPI SAHI

Gone Baby Gone (2007)

R 10/19/2007 (US) CrimeDramaMystery 1h 53m 
 

Everyone wants the truth... until they find it.

Overview

When 4 year old Amanda McCready disappears from her home and the police make little headway in solving the case, the girl's aunt, Beatrice McCready hires two private detectives, Patrick Kenzie and Angie Gennaro. The detectives freely admit that they have little experience with this type of case, but the family wants them for two reasons - they're not cops and they know the tough neighborhood in which they all live. As the case progresses, Kenzie and Gennaro face drug dealers, gangs and pedophiles. When they are about to solve the case, they are faced with a moral dilemma that tears them apart.

Directed byBen Affleck
Produced by
Screenplay by
  • Ben Affleck
  • Aaron Stockard
Based onGone, Baby, Gone
by Dennis Lehane
Starring
Music byHarry Gregson-Williams
CinematographyJohn Toll
Edited byWilliam Goldenberg
Production
companies
Distributed byWalt Disney Studios Motion Pictures
Release date
  • October 19, 2007
Running time
114 minutes
CountryUnited States
LanguageEnglish
Budget$19 million
Box office$34.6 million[1]


Gone Baby Gone 2007 x264 720p WebHD Esub English Hindi THE GOPI SAHI


Format                         : Matroska
Format version                 : Version 4
File size                      : 1.02 GiB
Duration                       : 1 h 53 min
Overall bit rate               : 1 284 kb/s
Movie name                     : Gone Baby Gone 2007 GOPI SAHI
Encoded date                   : UTC 2021-07-10 13:05:22

Video
ID                             : 1
Format                         : AVC
Format/Info                    : Advanced Video Codec
Format profile                 : [email protected]
Format settings                : CABAC / 5 Ref Frames
Format settings, CABAC         : Yes
Format settings, Reference fra : 5 frames
Codec ID                       : V_MPEG4/ISO/AVC
Duration                       : 1 h 53 min
Bit rate                       : 899 kb/s
Width                          : 1 280 pixels
Height                         : 690 pixels
Display aspect ratio           : 1.85:1
Frame rate mode                : Constant
Frame rate                     : 23.976 (24000/1001) FPS
Color space                    : YUV
Chroma subsampling             : 4:2:0
Bit depth                      : 8 bits
Scan type                      : Progressive
Bits/(Pixel*Frame)             : 0.042
Stream size                    : 732 MiB (70%)
Title                          : GOPI SAHI
Writing library                : x264 core 157 r2935 545de2f

Audio #1
ID                             : 2
Format                         : AAC LC
Format/Info                    : Advanced Audio Codec Low Complexity
Codec ID                       : A_AAC-2
Duration                       : 1 h 53 min
Bit rate                       : 192 kb/s
Channel(s)                     : 6 channels
Channel layout                 : C L R Ls Rs LFE
Sampling rate                  : 48.0 kHz
Frame rate                     : 46.875 FPS (1024 SPF)
Compression mode               : Lossy
Delay relative to video        : -21 ms
Stream size                    : 156 MiB (15%)
Title                          : GOPI SAHI
Language                       : Hindi
Default                        : Yes
Forced                         : No

Audio #2
ID                             : 3
Format                         : AAC LC
Format/Info                    : Advanced Audio Codec Low Complexity
Codec ID                       : A_AAC-2
Duration                       : 1 h 53 min
Bit rate                       : 192 kb/s
Channel(s)                     : 6 channels
Channel layout                 : C L R Ls Rs LFE
Sampling rate                  : 48.0 kHz
Frame rate                     : 46.875 FPS (1024 SPF)
Compression mode               : Lossy
Delay relative to video        : -21 ms
Stream size                    : 156 MiB (15%)
Title                          : GOPI SAHI
Language                       : English
Default                        : No
Forced                         : No

Text
ID                             : 4
Format                         : UTF-8
Codec ID                       : S_TEXT/UTF8
Codec ID/Info                  : UTF-8 Plain Text
Duration                       : 1 h 48 min
Bit rate                       : 81 b/s
Count of elements              : 1840
Stream size                    : 65.0 KiB (0%)
Title                          : GOPI SAHI
Language                       : English
Default                        : Yes
Forced                         : No




 MAGNET

TORRENT


TORRENT 2 PRIVATE

G-DRIVE FILE COPY

DOWNLOAD AUTO START IN 20 SEC

DOWNLOAD AND ONLINE TERA-BOX LINK

MEDIA-FIRE

MEGA NZ

DOWNLOAD AND ONLINE


ONLINE 720P

 

Post a Comment

0 Comments